<?xml version="1.0" standalone="no"?>
<!DOCTYPE svg PUBLIC "-//W3C//DTD SVG 1.1//EN" "http://www.w3.org/Graphics/SVG/1.1/DTD/svg11.dtd" >
<svg>
<metadata>
Created by FontForge 20090622 at Thu Jun  6 06:01:36 2019
 By deploy user
Copyright (c) 2016 by Victor Barac. All rights reserved.
</metadata>
<defs>
<font id="TheWildThings-Bold" horiz-adv-x="280" >
  <font-face 
    font-family="The Wild Things"
    font-weight="700"
    font-stretch="normal"
    units-per-em="1000"
    panose-1="0 0 0 0 0 0 0 0 0 0"
    ascent="750"
    descent="-250"
    x-height="339"
    cap-height="340"
    bbox="-60 -140 540 480"
    underline-thickness="50"
    underline-position="-50"
    unicode-range="U+000D-U+2022"
  />
<missing-glyph horiz-adv-x="160" 
 />
    <glyph glyph-name=".notdef" horiz-adv-x="160" 
 />
    <glyph glyph-name=".null" horiz-adv-x="0" 
 />
    <glyph glyph-name="nonmarkingreturn" horiz-adv-x="333" 
 />
    <glyph glyph-name="NULL" horiz-adv-x="0" 
 />
    <glyph glyph-name="NULL" horiz-adv-x="0" 
 />
    <glyph glyph-name="CR" unicode="&#xd;" horiz-adv-x="160" 
 />
    <glyph glyph-name="space" unicode=" " horiz-adv-x="160" 
 />
    <glyph glyph-name="exclam" unicode="!" horiz-adv-x="120" 
d="M30 80q-13 0 -21.5 8.5t-8.5 21.5v200q0 13 8.5 21.5t21.5 8.5t21.5 -8.5t8.5 -21.5v-200q0 -13 -8.5 -21.5t-21.5 -8.5zM60 30q0 -13 -8.5 -21.5t-21.5 -8.5t-21.5 8.5t-8.5 21.5t8.5 21.5t21.5 8.5t21.5 -8.5t8.5 -21.5z" />
    <glyph glyph-name="quotedbl" unicode="&#x22;" horiz-adv-x="220" 
d="M30 340q13 0 21.5 -8.5t8.5 -21.5q0 -24 -13.5 -47t-31.5 -23q-6 0 -10.5 4.5t-4.5 10.5q0 8 8 13q9 5 -4 27q-4 8 -4 15q0 13 8.5 21.5t21.5 8.5zM110 340q13 0 21.5 -8.5t8.5 -21.5q0 -24 -13.5 -47t-31.5 -23q-6 0 -10.5 4.5t-4.5 10.5q0 8 8 13q9 5 -4 27q-4 8 -4 15
q0 13 8.5 21.5t21.5 8.5z" />
    <glyph glyph-name="numbersign" unicode="#" 
d="M190 160q13 0 21.5 -9t8.5 -21q0 -13 -8.5 -21.5t-21.5 -8.5h-10v-20q0 -13 -8.5 -21.5t-21.5 -8.5t-21.5 8.5t-8.5 21.5v20h-20v-20q0 -13 -8.5 -21.5t-21.5 -8.5t-21.5 8.5t-8.5 21.5v20h-10q-13 0 -21.5 8.5t-8.5 21.5q0 12 8.5 21t21.5 9h10v20h-10q-13 0 -21.5 8.5
t-8.5 21.5t8.5 21.5t21.5 8.5h10v10q0 13 8.5 21.5t21.5 8.5t21.5 -8.5t8.5 -21.5v-10h20v10q0 13 8.5 21.5t21.5 8.5t21.5 -8.5t8.5 -21.5v-10h10q13 0 21.5 -8.5t8.5 -21.5t-8.5 -21.5t-21.5 -8.5h-10v-20h10zM100 160h20v20h-20v-20z" />
    <glyph glyph-name="dollar" unicode="$" 
d="M220 110q0 -37 -22.5 -66.5t-57.5 -39.5v-14q0 -13 -8.5 -21.5t-21.5 -8.5q-12 0 -21 8.5t-9 21.5v14q-35 10 -57.5 39.5t-22.5 66.5q0 13 8.5 21.5t21.5 8.5t21.5 -8.5t8.5 -21.5q0 -21 14.5 -35.5t35.5 -14.5q20 0 35 14.5t15 35.5q0 15 -10 23t-40 19q-40 14 -57 27
q-33 27 -33 71q0 29 16.5 52t43.5 33v15q0 12 9 21t21 9q13 0 21.5 -9t8.5 -21v-15q27 -10 43.5 -33t16.5 -52q0 -13 -8.5 -21.5t-21.5 -8.5t-21.5 8.5t-8.5 21.5t-8.5 21.5t-21.5 8.5q-12 0 -21 -8.5t-9 -21.5q0 -15 10 -23t40 -19q40 -14 57 -27q33 -27 33 -71z" />
    <glyph glyph-name="percent" unicode="%" horiz-adv-x="420" 
d="M160 258q-1 -32 -24 -54.5t-55 -23.5h-1h-2q-32 1 -54.5 24t-23.5 54v2v1q1 32 23.5 55t54.5 24h2h1q32 -1 55 -24t24 -55v-1v-2zM60 260q0 -8 6 -14t14 -6t14 6t6 14t-6 14t-14 6t-14 -6t-6 -14zM360 78q-1 -32 -24 -54.5t-55 -23.5h-1h-2q-32 1 -54.5 23.5t-23.5 54.5
v2v1q1 32 23.5 55t54.5 24h2h1q32 -1 55 -24t24 -55v-1v-2zM260 80q0 -8 6 -14t14 -6t14 6t6 14t-6 14t-14 6t-14 -6t-6 -14zM100 0q-8 0 -15 4q-11 6 -14 18t3 23l160 280q6 11 18 14t23 -3q10 -6 13.5 -18.5t-2.5 -22.5l-160 -280q-9 -15 -26 -15z" />
    <glyph glyph-name="ampersand" unicode="&#x26;" horiz-adv-x="340" 
d="M251 171q9 -9 9 -21.5t-9 -20.5l-12 -12q-5 -50 -42 -83.5t-87 -33.5q-46 0 -78 32t-32 78q0 52 39 84q-19 25 -19 56q0 38 26 64t64 26t64 -26t26 -64q0 -13 -8.5 -21.5t-21.5 -8.5t-21.5 8.5t-8.5 21.5q0 12 -9 21t-21 9q-13 0 -21.5 -9t-8.5 -21q0 -13 8.5 -21.5
t21.5 -8.5t21.5 -8.5t8.5 -21.5t-8.5 -21.5t-21.5 -8.5q-21 0 -35.5 -14.5t-14.5 -35.5t14.5 -35.5t35.5 -14.5q29 0 49.5 20.5t20.5 49.5q0 14 9 21l20 20q8 9 20.5 9t21.5 -9z" />
    <glyph glyph-name="quotesingle" unicode="'" horiz-adv-x="120" 
d="M30 340q13 0 21.5 -8.5t8.5 -21.5q0 -24 -13.5 -47t-31.5 -23q-6 0 -10.5 4.5t-4.5 10.5q0 8 8 13q9 5 -4 27q-4 8 -4 15q0 13 8.5 21.5t21.5 8.5z" />
    <glyph glyph-name="parenleft" unicode="(" horiz-adv-x="120" 
d="M90 -20q13 0 21.5 -8.5t8.5 -21.5t-8.5 -21.5t-21.5 -8.5q-38 0 -64 26t-26 64v320q0 38 26 64t64 26q13 0 21.5 -8.5t8.5 -21.5t-8.5 -21.5t-21.5 -8.5t-21.5 -9t-8.5 -21v-320q0 -13 8.5 -21.5t21.5 -8.5z" />
    <glyph glyph-name="parenright" unicode=")" horiz-adv-x="120" 
d="M-30 420q38 0 64 -26t26 -64v-320q0 -38 -26 -64t-64 -26q-13 0 -21.5 8.5t-8.5 21.5t8.5 21.5t21.5 8.5t21.5 8.5t8.5 21.5v320q0 12 -8.5 21t-21.5 9t-21.5 8.5t-8.5 21.5t8.5 21.5t21.5 8.5z" />
    <glyph glyph-name="asterisk" unicode="*" horiz-adv-x="220" 
d="M160 270q0 -22 -22 -29q9 -21 -10 -35q-8 -6 -18 -6q-15 0 -24 12l-6 8l-6 -8q-9 -12 -24 -12q-10 0 -18 6q-19 14 -10 35q-22 7 -22 29q0 24 22 29q-9 21 10 35q10 7 22 5.5t20 -11.5l6 -8l6 8q8 10 20 11.5t22 -5.5q19 -14 10 -35q22 -5 22 -29z" />
    <glyph glyph-name="plus" unicode="+" horiz-adv-x="240" 
d="M150 200q13 0 21.5 -8.5t8.5 -21.5t-8.5 -21.5t-21.5 -8.5h-30v-30q0 -12 -8.5 -21t-21.5 -9q-12 0 -21 9t-9 21v30h-30q-13 0 -21.5 8.5t-8.5 21.5t8.5 21.5t21.5 8.5h30v30q0 13 9 21.5t21 8.5q13 0 21.5 -8.5t8.5 -21.5v-30h30z" />
    <glyph glyph-name="comma" unicode="," horiz-adv-x="120" 
d="M30 60q13 0 21.5 -8.5t8.5 -21.5q0 -24 -13.5 -47t-31.5 -23q-6 0 -10.5 4.5t-4.5 10.5q0 8 8 13q9 5 -4 27q-4 8 -4 15q0 13 8.5 21.5t21.5 8.5z" />
    <glyph glyph-name="hyphen" unicode="-" horiz-adv-x="240" 
d="M150 140h-120q-13 0 -21.5 8.5t-8.5 21.5t8.5 21.5t21.5 8.5h120q13 0 21.5 -8.5t8.5 -21.5t-8.5 -21.5t-21.5 -8.5z" />
    <glyph glyph-name="period" unicode="." horiz-adv-x="120" 
d="M60 30q0 -13 -8.5 -21.5t-21.5 -8.5q-12 0 -21 8.5t-9 21.5t9 21.5t21 8.5q13 0 21.5 -8.5t8.5 -21.5z" />
    <glyph glyph-name="slash" unicode="/" 
d="M30 0q-8 0 -15 4q-11 6 -14 18t3 23l160 280q6 11 18 14t23 -3q10 -6 13.5 -18.5t-2.5 -22.5l-160 -280q-8 -15 -26 -15z" />
    <glyph glyph-name="zero" unicode="0" 
d="M110 340q46 0 78 -32t32 -78v-120q0 -46 -32 -78t-78 -32t-78 32t-32 78v120q0 46 32 78t78 32zM110 60q20 0 35 14.5t15 35.5v120q0 21 -15 35.5t-35 14.5q-21 0 -35.5 -14.5t-14.5 -35.5v-120q0 -21 14.5 -35.5t35.5 -14.5z" />
    <glyph glyph-name="one" unicode="1" horiz-adv-x="200" 
d="M110 340q13 0 21.5 -8.5t8.5 -21.5v-280q0 -13 -8.5 -21.5t-21.5 -8.5t-21.5 8.5t-8.5 21.5v153l-23 -46q-8 -17 -27 -17q-7 0 -13 3q-11 6 -15 18t1 22l80 160v0q9 17 27 17z" />
    <glyph glyph-name="two" unicode="2" 
d="M190 60q13 0 21.5 -8.5t8.5 -21.5t-8.5 -21.5t-21.5 -8.5h-160q-13 0 -21.5 8.5t-8.5 21.5q0 24 8 43.5t24.5 35.5t28 24.5t33.5 21.5q36 23 51 38t15 37q0 21 -15 35.5t-35 14.5q-21 0 -35.5 -14.5t-14.5 -35.5q0 -13 -8.5 -21.5t-21.5 -8.5t-21.5 8.5t-8.5 21.5
q0 46 32 78t78 32t78 -32t32 -78q0 -24 -8 -43.5t-24.5 -35.5t-28 -24.5t-33.5 -21.5q-46 -30 -57 -45h121z" />
    <glyph glyph-name="three" unicode="3" 
d="M162 227q58 -31 58 -97v-20q0 -46 -32 -78t-78 -32t-78 32t-32 78q0 13 8.5 21.5t21.5 8.5t21.5 -8.5t8.5 -21.5q0 -21 14.5 -35.5t35.5 -14.5q20 0 35 14.5t15 35.5v20q0 20 -15 35t-35 15q-12 0 -21 8.5t-9 21.5q0 11 7 19l41 51h-98q-13 0 -21.5 9t-8.5 21
q0 13 8.5 21.5t21.5 8.5h160q13 0 21.5 -8.5t8.5 -21.5q0 -10 -6 -19h-1z" />
    <glyph glyph-name="four" unicode="4" 
d="M190 340q13 0 21.5 -8.5t8.5 -21.5v-280q0 -13 -8.5 -21.5t-21.5 -8.5t-21.5 8.5t-8.5 21.5v50h-130q-13 0 -21.5 9t-8.5 21q0 10 6 19l161 200q8 11 23 11zM92 140h68v84z" />
    <glyph glyph-name="five" unicode="5" 
d="M110 240q46 0 78 -32t32 -78v-20q0 -46 -32 -78t-78 -32t-78 32t-32 78q0 13 8.5 21.5t21.5 8.5t21.5 -8.5t8.5 -21.5q0 -21 14.5 -35.5t35.5 -14.5q20 0 35 14.5t15 35.5v20q0 20 -15 35t-35 15h-80q-13 0 -21.5 8.5t-8.5 21.5v100q0 13 8.5 21.5t21.5 8.5h160
q13 0 21.5 -8.5t8.5 -21.5q0 -12 -8.5 -21t-21.5 -9h-130v-40h50z" />
    <glyph glyph-name="six" unicode="6" 
d="M110 220q46 0 78 -32t32 -78t-32 -78t-78 -32t-78 32t-32 78v120q0 46 32 78t78 32q29 0 57 -16t40 -41q5 -10 1 -22t-15 -18q-6 -3 -13 -3q-19 0 -27 17q-4 8 -17 15.5t-26 7.5q-21 0 -35.5 -14.5t-14.5 -35.5v-22q22 12 50 12zM110 60q20 0 35 14.5t15 35.5
q0 20 -15 35t-35 15q-21 0 -35.5 -15t-14.5 -35q0 -21 14.5 -35.5t35.5 -14.5z" />
    <glyph glyph-name="seven" unicode="7" 
d="M205 336q10 -6 13.5 -18.5t-2.5 -22.5l-55 -97q19 -7 19 -28q0 -13 -8.5 -21.5t-21.5 -8.5h-23l-71 -125q-8 -15 -26 -15q-8 0 -15 4q-11 6 -14 18t3 23l55 97q-19 7 -19 28q0 13 8.5 21.5t21.5 8.5h23l45 80h-108q-13 0 -21.5 9t-8.5 21q0 13 8.5 21.5t21.5 8.5h160
q8 0 15 -4z" />
    <glyph glyph-name="eight" unicode="8" 
d="M181 194q39 -33 39 -84q0 -46 -32 -78t-78 -32t-78 32t-32 78q0 52 39 84q-19 25 -19 56q0 38 26 64t64 26t64 -26t26 -64q0 -31 -19 -56zM80 250q0 -13 9 -21.5t21 -8.5q13 0 21.5 8.5t8.5 21.5t-8.5 21.5t-21.5 8.5q-12 0 -21 -8.5t-9 -21.5zM110 60q20 0 35 14.5
t15 35.5q0 20 -15 35t-35 15q-21 0 -35.5 -15t-14.5 -35q0 -21 14.5 -35.5t35.5 -14.5z" />
    <glyph glyph-name="nine" unicode="9" 
d="M110 120q-46 0 -78 32t-32 78t32 78t78 32t78 -32t32 -78v-120q0 -46 -32 -78t-78 -32q-29 0 -57 16t-40 41q-5 10 -1 22t15 18q6 3 13 3q19 0 27 -17q4 -8 17 -15.5t26 -7.5q20 0 35 14.5t15 35.5v22q-22 -12 -50 -12zM110 280q-21 0 -35.5 -14.5t-14.5 -35.5
t14.5 -35.5t35.5 -14.5q20 0 35 14.5t15 35.5t-15 35.5t-35 14.5z" />
    <glyph glyph-name="colon" unicode=":" horiz-adv-x="120" 
d="M60 150q0 -13 -8.5 -21.5t-21.5 -8.5q-12 0 -21 8.5t-9 21.5t9 21.5t21 8.5q13 0 21.5 -8.5t8.5 -21.5zM60 30q0 -13 -8.5 -21.5t-21.5 -8.5q-12 0 -21 8.5t-9 21.5t9 21.5t21 8.5q13 0 21.5 -8.5t8.5 -21.5z" />
    <glyph glyph-name="semicolon" unicode=";" horiz-adv-x="120" 
d="M30 60q13 0 21.5 -8.5t8.5 -21.5q0 -24 -13.5 -47t-31.5 -23q-6 0 -10.5 4.5t-4.5 10.5q0 8 8 13q9 5 -4 27q-4 8 -4 15q0 13 8.5 21.5t21.5 8.5zM60 150q0 -13 -8.5 -21.5t-21.5 -8.5q-12 0 -21 8.5t-9 21.5t9 21.5t21 8.5q13 0 21.5 -8.5t8.5 -21.5z" />
    <glyph glyph-name="less" unicode="&#x3c;" horiz-adv-x="240" 
d="M167 115q10 -7 12.5 -19t-4.5 -23q-10 -13 -25 -13q-9 0 -17 5l-120 80q-10 7 -12.5 19t4.5 23q3 5 9 8l119 80q11 7 23 4.5t19 -12.5q7 -11 4.5 -23t-12.5 -19l-83 -55z" />
    <glyph glyph-name="equal" unicode="=" 
d="M150 190h-120q-13 0 -21.5 8.5t-8.5 21.5t8.5 21.5t21.5 8.5h120q13 0 21.5 -8.5t8.5 -21.5t-8.5 -21.5t-21.5 -8.5zM150 90h-120q-13 0 -21.5 8.5t-8.5 21.5t8.5 21.5t21.5 8.5h120q13 0 21.5 -8.5t8.5 -21.5t-8.5 -21.5t-21.5 -8.5z" />
    <glyph glyph-name="greater" unicode="&#x3e;" horiz-adv-x="240" 
d="M13 225q-10 7 -12.5 19t4.5 23q10 13 25 13q7 0 17 -5l120 -80q10 -7 12.5 -19t-4.5 -23q-3 -5 -9 -8l-119 -80q-11 -7 -23 -4.5t-19 12.5q-7 11 -4.5 23t12.5 19l83 55z" />
    <glyph glyph-name="question" unicode="?" 
d="M110 60q13 0 21.5 -8.5t8.5 -21.5t-8.5 -21.5t-21.5 -8.5q-12 0 -21 8.5t-9 21.5t9 21.5t21 8.5zM110 340q46 0 78 -32t32 -78q0 -28 -11 -49t-20 -28.5t-27 -18.5q-15 -8 -18.5 -12t-3.5 -12q0 -12 -8.5 -21t-21.5 -9q-12 0 -21 9t-9 21q0 21 9.5 37t18 22.5t22.5 15.5
q12 8 17 12t9 12.5t4 20.5q0 21 -15 35.5t-35 14.5q-21 0 -35.5 -14.5t-14.5 -35.5q0 -13 -8.5 -21.5t-21.5 -8.5t-21.5 8.5t-8.5 21.5q0 46 32 78t78 32z" />
    <glyph glyph-name="at" unicode="@" horiz-adv-x="600" 
d="M461 401q79 -79 79 -191v-100q0 -46 -32 -78t-78 -32q-48 0 -80 35q-32 -35 -80 -35q-46 0 -78 32t-32 78v120q0 46 32 78t78 32q29 0 54 -14q10 14 26 14q13 0 21.5 -8.5t8.5 -21.5v-200q0 -21 14.5 -35.5t35.5 -14.5t35.5 14.5t14.5 35.5v100q0 87 -61.5 148.5
t-148.5 61.5t-148.5 -61.5t-61.5 -148.5v-80q0 -87 61.5 -148.5t148.5 -61.5q16 0 31.5 2.5t28 6t24 8.5t20 9.5t14.5 8t10 5.5l3 3q9 7 19 7q13 0 21.5 -8.5t8.5 -21.5q0 -15 -11 -23q-6 -6 -23.5 -17t-59.5 -25.5t-86 -14.5q-112 0 -191 79t-79 191v80q0 112 79 191
t191 79t191 -79zM270 60q21 0 35.5 14.5t14.5 35.5v120q0 21 -14.5 35.5t-35.5 14.5t-35.5 -14.5t-14.5 -35.5v-120q0 -21 14.5 -35.5t35.5 -14.5z" />
    <glyph glyph-name="A" unicode="A" 
d="M219 38q3 -12 -3 -22.5t-18 -14.5q-3 -1 -8 -1q-22 0 -29 22l-17 58h-69l-16 -58q-7 -22 -29 -22q-6 0 -8 1q-12 4 -18 14.5t-3 22.5l80 280q4 12 14.5 18t22.5 3q15 -5 21 -21zM93 140h34l-17 61z" />
    <glyph glyph-name="B" unicode="B" 
d="M181 194q39 -33 39 -84q0 -46 -32 -78t-78 -32h-80q-13 0 -21.5 8.5t-8.5 21.5v280q0 13 8.5 21.5t21.5 8.5h80q38 0 64 -26t26 -64q0 -31 -19 -56zM60 220h50q12 0 21 8.5t9 21.5q0 12 -9 21t-21 9h-50v-60zM110 60q21 0 35.5 14.5t14.5 35.5t-14.5 35.5t-35.5 14.5h-50
v-100h50z" />
    <glyph glyph-name="C" unicode="C" 
d="M190 140q13 0 21.5 -8.5t8.5 -21.5q0 -46 -32 -78t-78 -32t-78 32t-32 78v120q0 46 32 78t78 32t78 -32t32 -78q0 -13 -8.5 -21.5t-21.5 -8.5t-21.5 8.5t-8.5 21.5q0 21 -14.5 35.5t-35.5 14.5t-35.5 -14.5t-14.5 -35.5v-120q0 -21 14.5 -35.5t35.5 -14.5t35.5 14.5
t14.5 35.5q0 13 8.5 21.5t21.5 8.5z" />
    <glyph glyph-name="D" unicode="D" 
d="M110 340q46 0 78 -32t32 -78v-120q0 -46 -32 -78t-78 -32h-80q-13 0 -21.5 8.5t-8.5 21.5v280q0 13 8.5 21.5t21.5 8.5h80zM110 60q21 0 35.5 14.5t14.5 35.5v120q0 21 -14.5 35.5t-35.5 14.5h-50v-220h50z" />
    <glyph glyph-name="E" unicode="E" 
d="M190 60q13 0 21.5 -8.5t8.5 -21.5t-8.5 -21.5t-21.5 -8.5h-160q-13 0 -21.5 8.5t-8.5 21.5v280q0 13 8.5 21.5t21.5 8.5h160q13 0 21.5 -8.5t8.5 -21.5t-8.5 -21.5t-21.5 -8.5h-130v-80h70q13 0 21.5 -8.5t8.5 -21.5t-8.5 -21.5t-21.5 -8.5h-70v-80h130z" />
    <glyph glyph-name="F" unicode="F" 
d="M190 340q13 0 21.5 -8.5t8.5 -21.5t-8.5 -21.5t-21.5 -8.5h-130v-80h70q13 0 21.5 -8.5t8.5 -21.5t-8.5 -21.5t-21.5 -8.5h-70v-110q0 -13 -8.5 -21.5t-21.5 -8.5t-21.5 8.5t-8.5 21.5v280q0 13 8.5 21.5t21.5 8.5h160z" />
    <glyph glyph-name="G" unicode="G" 
d="M190 180q13 0 21.5 -8.5t8.5 -21.5v-40q0 -46 -32 -78t-78 -32t-78 32t-32 78v120q0 46 32 78t78 32t78 -32t32 -78q0 -13 -8.5 -21.5t-21.5 -8.5t-21.5 8.5t-8.5 21.5q0 21 -14.5 35.5t-35.5 14.5t-35.5 -14.5t-14.5 -35.5v-120q0 -21 14.5 -35.5t35.5 -14.5t35.5 14.5
t14.5 35.5v10h-30q-13 0 -21.5 8.5t-8.5 21.5t8.5 21.5t21.5 8.5h60z" />
    <glyph glyph-name="H" unicode="H" 
d="M190 340q13 0 21.5 -8.5t8.5 -21.5v-280q0 -13 -8.5 -21.5t-21.5 -8.5t-21.5 8.5t-8.5 21.5v110h-100v-110q0 -13 -8.5 -21.5t-21.5 -8.5t-21.5 8.5t-8.5 21.5v280q0 13 8.5 21.5t21.5 8.5t21.5 -8.5t8.5 -21.5v-110h100v110q0 13 8.5 21.5t21.5 8.5z" />
    <glyph glyph-name="I" unicode="I" horiz-adv-x="120" 
d="M30 0q-13 0 -21.5 8.5t-8.5 21.5v280q0 13 8.5 21.5t21.5 8.5t21.5 -8.5t8.5 -21.5v-280q0 -13 -8.5 -21.5t-21.5 -8.5z" />
    <glyph glyph-name="J" unicode="J" 
d="M190 340q13 0 21.5 -8.5t8.5 -21.5v-200q0 -46 -32 -78t-78 -32t-78 32t-32 78q0 13 8.5 21.5t21.5 8.5t21.5 -8.5t8.5 -21.5q0 -21 14.5 -35.5t35.5 -14.5t35.5 14.5t14.5 35.5v200q0 13 8.5 21.5t21.5 8.5z" />
    <glyph glyph-name="K" unicode="K" horiz-adv-x="281" 
d="M211 51q9 -9 9 -21.5t-9 -20.5q-9 -9 -21 -9t-21 9l-101 100l-8 -10v-69q0 -13 -8.5 -21.5t-21.5 -8.5t-21.5 8.5t-8.5 21.5v280q0 13 8.5 21.5t21.5 8.5t21.5 -8.5t8.5 -21.5v-115l107 134q8 10 20 11t22 -7t11 -20t-7 -22l-107 -134z" />
    <glyph glyph-name="L" unicode="L" 
d="M190 60q13 0 21.5 -8.5t8.5 -21.5t-8.5 -21.5t-21.5 -8.5h-160q-13 0 -21.5 8.5t-8.5 21.5v280q0 13 8.5 21.5t21.5 8.5t21.5 -8.5t8.5 -21.5v-250h130z" />
    <glyph glyph-name="M" unicode="M" 
d="M190 340q13 0 21.5 -8.5t8.5 -21.5v-280q0 -13 -8.5 -21.5t-21.5 -8.5t-21.5 8.5t-8.5 21.5v124l-22 -55q-8 -19 -28 -19q-5 0 -11 2q-12 5 -17 17l-22 55v-124q0 -13 -8.5 -21.5t-21.5 -8.5t-21.5 8.5t-8.5 21.5v280q0 13 8.5 21.5t21.5 8.5q19 0 28 -19l52 -130l52 130
q9 19 28 19z" />
    <glyph glyph-name="N" unicode="N" 
d="M190 340q13 0 21.5 -8.5t8.5 -21.5v-280q0 -13 -8.5 -21.5t-21.5 -8.5q-18 0 -26 15l-104 182v-167q0 -13 -8.5 -21.5t-21.5 -8.5t-21.5 8.5t-8.5 21.5v280q0 13 8.5 21.5t21.5 8.5q18 0 26 -15l104 -182v167q0 13 8.5 21.5t21.5 8.5z" />
    <glyph glyph-name="O" unicode="O" 
d="M110 340q46 0 78 -32t32 -78v-120q0 -46 -32 -78t-78 -32t-78 32t-32 78v120q0 46 32 78t78 32zM110 60q21 0 35.5 14.5t14.5 35.5v120q0 21 -14.5 35.5t-35.5 14.5t-35.5 -14.5t-14.5 -35.5v-120q0 -21 14.5 -35.5t35.5 -14.5z" />
    <glyph glyph-name="P" unicode="P" 
d="M110 340q46 0 78 -32t32 -78t-32 -78t-78 -32h-50v-90q0 -13 -8.5 -21.5t-21.5 -8.5t-21.5 8.5t-8.5 21.5v280q0 13 8.5 21.5t21.5 8.5h80zM110 180q21 0 35.5 14.5t14.5 35.5t-14.5 35.5t-35.5 14.5h-50v-100h50z" />
    <glyph glyph-name="Q" unicode="Q" 
d="M220 230v-120q0 -36 -22 -66l13 -13q9 -9 9 -21.5t-9 -20.5q-9 -9 -21 -9t-21 9l-19 18q-21 -7 -40 -7q-46 0 -78 32t-32 78v120q0 46 32 78t78 32t78 -32t32 -78zM131 111l24 -23q5 10 5 22v120q0 21 -14.5 35.5t-35.5 14.5t-35.5 -14.5t-14.5 -35.5v-120q0 -17 10 -30
t25 -18l-6 7q-9 8 -9 20.5t9 21.5q8 9 20.5 9t21.5 -9z" />
    <glyph glyph-name="R" unicode="R" 
d="M215 47q7 -11 4.5 -23t-12.5 -19q-10 -5 -17 -5q-15 0 -25 13l-71 107h-34v-90q0 -13 -8.5 -21.5t-21.5 -8.5t-21.5 8.5t-8.5 21.5v280q0 13 8.5 21.5t21.5 8.5h80q46 0 78 -32t32 -78q0 -32 -17 -58.5t-45 -40.5zM60 280v-100h50q21 0 35.5 14.5t14.5 35.5t-14.5 35.5
t-35.5 14.5h-50z" />
    <glyph glyph-name="S" unicode="S" 
d="M187 181q33 -27 33 -71q0 -46 -32 -78t-78 -32t-78 32t-32 78q0 13 8.5 21.5t21.5 8.5t21.5 -8.5t8.5 -21.5q0 -21 14.5 -35.5t35.5 -14.5t35.5 14.5t14.5 35.5q0 15 -10 23t-40 19q-40 14 -57 27q-33 27 -33 71q0 38 26 64t64 26t64 -26t26 -64q0 -13 -8.5 -21.5
t-21.5 -8.5t-21.5 8.5t-8.5 21.5q0 12 -9 21t-21 9q-13 0 -21.5 -9t-8.5 -21q0 -15 10 -23t40 -19q40 -14 57 -27z" />
    <glyph glyph-name="T" unicode="T" 
d="M190 340q13 0 21.5 -8.5t8.5 -21.5t-8.5 -21.5t-21.5 -8.5h-50v-250q0 -13 -8.5 -21.5t-21.5 -8.5t-21.5 8.5t-8.5 21.5v250h-50q-13 0 -21.5 8.5t-8.5 21.5t8.5 21.5t21.5 8.5h160z" />
    <glyph glyph-name="U" unicode="U" 
d="M190 340q13 0 21.5 -8.5t8.5 -21.5v-200q0 -46 -32 -78t-78 -32t-78 32t-32 78v200q0 13 8.5 21.5t21.5 8.5t21.5 -8.5t8.5 -21.5v-200q0 -21 14.5 -35.5t35.5 -14.5t35.5 14.5t14.5 35.5v200q0 13 8.5 21.5t21.5 8.5z" />
    <glyph glyph-name="V" unicode="V" 
d="M198 339q12 -4 18 -14.5t3 -22.5l-80 -280q-7 -22 -29 -22q-6 0 -8 1q-15 5 -21 21l-80 280q-3 12 3 22.5t18 14.5q12 3 22.5 -3t14.5 -18l51 -179l51 179q4 12 14.5 18t22.5 3z" />
    <glyph glyph-name="W" unicode="W" horiz-adv-x="440" 
d="M358 339q12 -4 18 -14.5t3 -22.5l-80 -280q-7 -22 -29 -22q-6 0 -8 1q-15 5 -21 21l-51 179l-51 -179q-7 -22 -29 -22q-6 0 -8 1q-15 5 -21 21l-80 280q-3 12 3 22.5t18 14.5q12 3 22.5 -3t14.5 -18l51 -179l51 179q4 12 14.5 18t22.5 3q14 -4 21 -21l51 -179l51 179
q4 12 14.5 18t22.5 3z" />
    <glyph glyph-name="X" unicode="X" 
d="M145 170l71 -125q6 -11 3 -23t-14 -18q-7 -4 -15 -4q-18 0 -26 15l-54 94l-54 -94q-9 -15 -26 -15q-8 0 -15 4q-11 6 -14 18t3 23l71 125l-71 125q-6 10 -2.5 22.5t13.5 18.5t22.5 2.5t18.5 -13.5l54 -95l54 95q6 11 18 14t23 -3q10 -6 13.5 -18.5t-2.5 -22.5z" />
    <glyph glyph-name="Y" unicode="Y" 
d="M205 336q10 -6 13.5 -18.5t-2.5 -22.5l-76 -133v-132q0 -13 -8.5 -21.5t-21.5 -8.5t-21.5 8.5t-8.5 21.5v132l-76 133q-6 10 -2.5 22.5t13.5 18.5t22.5 2.5t18.5 -13.5l54 -95l54 95q6 11 18 14t23 -3z" />
    <glyph glyph-name="Z" unicode="Z" 
d="M190 60q13 0 21.5 -8.5t8.5 -21.5t-8.5 -21.5t-21.5 -8.5h-160q-13 0 -21.5 8.5t-8.5 21.5q0 8 4 15l134 235h-108q-13 0 -21.5 8.5t-8.5 21.5t8.5 21.5t21.5 8.5h160q13 0 21.5 -8.5t8.5 -21.5q0 -8 -4 -15l-134 -235h108z" />
    <glyph glyph-name="bracketleft" unicode="[" horiz-adv-x="120" 
d="M90 -20q13 0 21.5 -8.5t8.5 -21.5t-8.5 -21.5t-21.5 -8.5h-60q-12 0 -21 8.5t-9 21.5v440q0 13 9 21.5t21 8.5h60q13 0 21.5 -8.5t8.5 -21.5t-8.5 -21.5t-21.5 -8.5h-30v-380h30z" />
    <glyph glyph-name="backslash" unicode="\" 
d="M190 0q-18 0 -26 15l-160 280q-6 10 -2.5 22.5t13.5 18.5q11 6 23 3t18 -14l160 -280q6 -11 3 -23t-14 -18q-7 -4 -15 -4z" />
    <glyph glyph-name="bracketright" unicode="]" horiz-adv-x="120" 
d="M30 420q13 0 21.5 -8.5t8.5 -21.5v-440q0 -13 -8.5 -21.5t-21.5 -8.5h-60q-13 0 -21.5 8.5t-8.5 21.5t8.5 21.5t21.5 8.5h30v380h-30q-13 0 -21.5 8.5t-8.5 21.5t8.5 21.5t21.5 8.5h60z" />
    <glyph glyph-name="asciicircum" unicode="^" horiz-adv-x="240" 
d="M174 248q7 -10 5.5 -22t-11.5 -20q-7 -6 -18 -6q-15 0 -24 12l-36 48l-36 -48q-9 -12 -24 -12q-10 0 -18 6q-10 8 -11.5 20t5.5 22l60 80q9 12 24 12t24 -12z" />
    <glyph glyph-name="underscore" unicode="_" 
d="M190 0h-160q-13 0 -21.5 8.5t-8.5 21.5t8.5 21.5t21.5 8.5h160q13 0 21.5 -8.5t8.5 -21.5t-8.5 -21.5t-21.5 -8.5z" />
    <glyph glyph-name="grave" unicode="`" horiz-adv-x="180" 
d="M90 280q-12 0 -21 9l-80 80q-9 8 -9 20.5t9 21.5t21.5 9t20.5 -9l80 -80q9 -8 9 -21t-9 -21q-9 -9 -21 -9z" />
    <glyph glyph-name="a" unicode="a" 
d="M219 38q3 -12 -3 -22.5t-18 -14.5q-3 -1 -8 -1q-22 0 -29 22l-17 58h-69l-16 -58q-7 -22 -29 -22q-6 0 -8 1q-12 4 -18 14.5t-3 22.5l80 280q4 12 14.5 18t22.5 3q15 -5 21 -21zM93 140h34l-17 61z" />
    <glyph glyph-name="b" unicode="b" 
d="M181 194q39 -33 39 -84q0 -46 -32 -78t-78 -32h-80q-13 0 -21.5 8.5t-8.5 21.5v280q0 13 8.5 21.5t21.5 8.5h80q38 0 64 -26t26 -64q0 -31 -19 -56zM60 220h50q12 0 21 8.5t9 21.5q0 12 -9 21t-21 9h-50v-60zM110 60q21 0 35.5 14.5t14.5 35.5t-14.5 35.5t-35.5 14.5h-50
v-100h50z" />
    <glyph glyph-name="c" unicode="c" 
d="M190 140q13 0 21.5 -8.5t8.5 -21.5q0 -46 -32 -78t-78 -32t-78 32t-32 78v120q0 46 32 78t78 32t78 -32t32 -78q0 -13 -8.5 -21.5t-21.5 -8.5t-21.5 8.5t-8.5 21.5q0 21 -14.5 35.5t-35.5 14.5t-35.5 -14.5t-14.5 -35.5v-120q0 -21 14.5 -35.5t35.5 -14.5t35.5 14.5
t14.5 35.5q0 13 8.5 21.5t21.5 8.5z" />
    <glyph glyph-name="d" unicode="d" 
d="M110 340q46 0 78 -32t32 -78v-120q0 -46 -32 -78t-78 -32h-80q-13 0 -21.5 8.5t-8.5 21.5v280q0 13 8.5 21.5t21.5 8.5h80zM110 60q21 0 35.5 14.5t14.5 35.5v120q0 21 -14.5 35.5t-35.5 14.5h-50v-220h50z" />
    <glyph glyph-name="e" unicode="e" 
d="M190 60q13 0 21.5 -8.5t8.5 -21.5t-8.5 -21.5t-21.5 -8.5h-160q-13 0 -21.5 8.5t-8.5 21.5v280q0 13 8.5 21.5t21.5 8.5h160q13 0 21.5 -8.5t8.5 -21.5t-8.5 -21.5t-21.5 -8.5h-130v-80h70q13 0 21.5 -8.5t8.5 -21.5t-8.5 -21.5t-21.5 -8.5h-70v-80h130z" />
    <glyph glyph-name="f" unicode="f" 
d="M190 340q13 0 21.5 -8.5t8.5 -21.5t-8.5 -21.5t-21.5 -8.5h-130v-80h70q13 0 21.5 -8.5t8.5 -21.5t-8.5 -21.5t-21.5 -8.5h-70v-110q0 -13 -8.5 -21.5t-21.5 -8.5t-21.5 8.5t-8.5 21.5v280q0 13 8.5 21.5t21.5 8.5h160z" />
    <glyph glyph-name="g" unicode="g" 
d="M190 180q13 0 21.5 -8.5t8.5 -21.5v-40q0 -46 -32 -78t-78 -32t-78 32t-32 78v120q0 46 32 78t78 32t78 -32t32 -78q0 -13 -8.5 -21.5t-21.5 -8.5t-21.5 8.5t-8.5 21.5q0 21 -14.5 35.5t-35.5 14.5t-35.5 -14.5t-14.5 -35.5v-120q0 -21 14.5 -35.5t35.5 -14.5t35.5 14.5
t14.5 35.5v10h-30q-13 0 -21.5 8.5t-8.5 21.5t8.5 21.5t21.5 8.5h60z" />
    <glyph glyph-name="h" unicode="h" 
d="M190 340q13 0 21.5 -8.5t8.5 -21.5v-280q0 -13 -8.5 -21.5t-21.5 -8.5t-21.5 8.5t-8.5 21.5v110h-100v-110q0 -13 -8.5 -21.5t-21.5 -8.5t-21.5 8.5t-8.5 21.5v280q0 13 8.5 21.5t21.5 8.5t21.5 -8.5t8.5 -21.5v-110h100v110q0 13 8.5 21.5t21.5 8.5z" />
    <glyph glyph-name="i" unicode="i" horiz-adv-x="120" 
d="M30 0q-13 0 -21.5 8.5t-8.5 21.5v280q0 13 8.5 21.5t21.5 8.5t21.5 -8.5t8.5 -21.5v-280q0 -13 -8.5 -21.5t-21.5 -8.5z" />
    <glyph glyph-name="j" unicode="j" 
d="M190 340q13 0 21.5 -8.5t8.5 -21.5v-200q0 -46 -32 -78t-78 -32t-78 32t-32 78q0 13 8.5 21.5t21.5 8.5t21.5 -8.5t8.5 -21.5q0 -21 14.5 -35.5t35.5 -14.5t35.5 14.5t14.5 35.5v200q0 13 8.5 21.5t21.5 8.5z" />
    <glyph glyph-name="k" unicode="k" horiz-adv-x="281" 
d="M211 51q9 -9 9 -21.5t-9 -20.5q-9 -9 -21 -9t-21 9l-101 100l-8 -10v-69q0 -13 -8.5 -21.5t-21.5 -8.5t-21.5 8.5t-8.5 21.5v280q0 13 8.5 21.5t21.5 8.5t21.5 -8.5t8.5 -21.5v-115l107 134q8 10 20 11t22 -7t11 -20t-7 -22l-107 -134z" />
    <glyph glyph-name="l" unicode="l" 
d="M190 60q13 0 21.5 -8.5t8.5 -21.5t-8.5 -21.5t-21.5 -8.5h-160q-13 0 -21.5 8.5t-8.5 21.5v280q0 13 8.5 21.5t21.5 8.5t21.5 -8.5t8.5 -21.5v-250h130z" />
    <glyph glyph-name="m" unicode="m" 
d="M190 340q13 0 21.5 -8.5t8.5 -21.5v-280q0 -13 -8.5 -21.5t-21.5 -8.5t-21.5 8.5t-8.5 21.5v124l-22 -55q-8 -19 -28 -19q-5 0 -11 2q-12 5 -17 17l-22 55v-124q0 -13 -8.5 -21.5t-21.5 -8.5t-21.5 8.5t-8.5 21.5v280q0 13 8.5 21.5t21.5 8.5q19 0 28 -19l52 -130l52 130
q9 19 28 19z" />
    <glyph glyph-name="n" unicode="n" 
d="M190 340q13 0 21.5 -8.5t8.5 -21.5v-280q0 -13 -8.5 -21.5t-21.5 -8.5q-18 0 -26 15l-104 182v-167q0 -13 -8.5 -21.5t-21.5 -8.5t-21.5 8.5t-8.5 21.5v280q0 13 8.5 21.5t21.5 8.5q18 0 26 -15l104 -182v167q0 13 8.5 21.5t21.5 8.5z" />
    <glyph glyph-name="o" unicode="o" 
d="M110 340q46 0 78 -32t32 -78v-120q0 -46 -32 -78t-78 -32t-78 32t-32 78v120q0 46 32 78t78 32zM110 60q21 0 35.5 14.5t14.5 35.5v120q0 21 -14.5 35.5t-35.5 14.5t-35.5 -14.5t-14.5 -35.5v-120q0 -21 14.5 -35.5t35.5 -14.5z" />
    <glyph glyph-name="p" unicode="p" 
d="M110 340q46 0 78 -32t32 -78t-32 -78t-78 -32h-50v-90q0 -13 -8.5 -21.5t-21.5 -8.5t-21.5 8.5t-8.5 21.5v280q0 13 8.5 21.5t21.5 8.5h80zM110 180q21 0 35.5 14.5t14.5 35.5t-14.5 35.5t-35.5 14.5h-50v-100h50z" />
    <glyph glyph-name="q" unicode="q" 
d="M220 230v-120q0 -36 -22 -66l13 -13q9 -9 9 -21.5t-9 -20.5q-9 -9 -21 -9t-21 9l-19 18q-21 -7 -40 -7q-46 0 -78 32t-32 78v120q0 46 32 78t78 32t78 -32t32 -78zM131 111l24 -23q5 10 5 22v120q0 21 -14.5 35.5t-35.5 14.5t-35.5 -14.5t-14.5 -35.5v-120q0 -17 10 -30
t25 -18l-6 7q-9 8 -9 20.5t9 21.5q8 9 20.5 9t21.5 -9z" />
    <glyph glyph-name="r" unicode="r" 
d="M215 47q7 -11 4.5 -23t-12.5 -19q-10 -5 -17 -5q-15 0 -25 13l-71 107h-34v-90q0 -13 -8.5 -21.5t-21.5 -8.5t-21.5 8.5t-8.5 21.5v280q0 13 8.5 21.5t21.5 8.5h80q46 0 78 -32t32 -78q0 -32 -17 -58.5t-45 -40.5zM60 280v-100h50q21 0 35.5 14.5t14.5 35.5t-14.5 35.5
t-35.5 14.5h-50z" />
    <glyph glyph-name="s" unicode="s" 
d="M187 181q33 -27 33 -71q0 -46 -32 -78t-78 -32t-78 32t-32 78q0 13 8.5 21.5t21.5 8.5t21.5 -8.5t8.5 -21.5q0 -21 14.5 -35.5t35.5 -14.5t35.5 14.5t14.5 35.5q0 15 -10 23t-40 19q-40 14 -57 27q-33 27 -33 71q0 38 26 64t64 26t64 -26t26 -64q0 -13 -8.5 -21.5
t-21.5 -8.5t-21.5 8.5t-8.5 21.5q0 12 -9 21t-21 9q-13 0 -21.5 -9t-8.5 -21q0 -15 10 -23t40 -19q40 -14 57 -27z" />
    <glyph glyph-name="t" unicode="t" 
d="M190 340q13 0 21.5 -8.5t8.5 -21.5t-8.5 -21.5t-21.5 -8.5h-50v-250q0 -13 -8.5 -21.5t-21.5 -8.5t-21.5 8.5t-8.5 21.5v250h-50q-13 0 -21.5 8.5t-8.5 21.5t8.5 21.5t21.5 8.5h160z" />
    <glyph glyph-name="u" unicode="u" 
d="M190 340q13 0 21.5 -8.5t8.5 -21.5v-200q0 -46 -32 -78t-78 -32t-78 32t-32 78v200q0 13 8.5 21.5t21.5 8.5t21.5 -8.5t8.5 -21.5v-200q0 -21 14.5 -35.5t35.5 -14.5t35.5 14.5t14.5 35.5v200q0 13 8.5 21.5t21.5 8.5z" />
    <glyph glyph-name="v" unicode="v" 
d="M198 339q12 -4 18 -14.5t3 -22.5l-80 -280q-7 -22 -29 -22q-6 0 -8 1q-15 5 -21 21l-80 280q-3 12 3 22.5t18 14.5q12 3 22.5 -3t14.5 -18l51 -179l51 179q4 12 14.5 18t22.5 3z" />
    <glyph glyph-name="w" unicode="w" horiz-adv-x="440" 
d="M358 339q12 -4 18 -14.5t3 -22.5l-80 -280q-7 -22 -29 -22q-6 0 -8 1q-15 5 -21 21l-51 179l-51 -179q-7 -22 -29 -22q-6 0 -8 1q-15 5 -21 21l-80 280q-3 12 3 22.5t18 14.5q12 3 22.5 -3t14.5 -18l51 -179l51 179q4 12 14.5 18t22.5 3q14 -4 21 -21l51 -179l51 179
q4 12 14.5 18t22.5 3z" />
    <glyph glyph-name="x" unicode="x" 
d="M145 170l71 -125q6 -11 3 -23t-14 -18q-7 -4 -15 -4q-18 0 -26 15l-54 94l-54 -94q-9 -15 -26 -15q-8 0 -15 4q-11 6 -14 18t3 23l71 125l-71 125q-6 10 -2.5 22.5t13.5 18.5t22.5 2.5t18.5 -13.5l54 -95l54 95q6 11 18 14t23 -3q10 -6 13.5 -18.5t-2.5 -22.5z" />
    <glyph glyph-name="y" unicode="y" 
d="M205 336q10 -6 13.5 -18.5t-2.5 -22.5l-76 -133v-132q0 -13 -8.5 -21.5t-21.5 -8.5t-21.5 8.5t-8.5 21.5v132l-76 133q-6 10 -2.5 22.5t13.5 18.5t22.5 2.5t18.5 -13.5l54 -95l54 95q6 11 18 14t23 -3z" />
    <glyph glyph-name="z" unicode="z" 
d="M190 60q13 0 21.5 -8.5t8.5 -21.5t-8.5 -21.5t-21.5 -8.5h-160q-13 0 -21.5 8.5t-8.5 21.5q0 8 4 15l134 235h-108q-13 0 -21.5 8.5t-8.5 21.5t8.5 21.5t21.5 8.5h160q13 0 21.5 -8.5t8.5 -21.5q0 -8 -4 -15l-134 -235h108z" />
    <glyph glyph-name="braceleft" unicode="{" horiz-adv-x="180" 
d="M150 -20q13 0 21.5 -8.5t8.5 -21.5t-8.5 -21.5t-21.5 -8.5q-38 0 -64 26t-26 64v100q0 13 -8.5 21.5t-21.5 8.5t-21.5 8.5t-8.5 21.5t8.5 21.5t21.5 8.5t21.5 8.5t8.5 21.5v100q0 38 26 64t64 26q13 0 21.5 -8.5t8.5 -21.5t-8.5 -21.5t-21.5 -8.5t-21.5 -9t-8.5 -21v-100
q0 -34 -23 -60q23 -26 23 -60v-100q0 -13 8.5 -21.5t21.5 -8.5z" />
    <glyph glyph-name="bar" unicode="|" horiz-adv-x="120" 
d="M30 -80q-12 0 -21 8.5t-9 21.5v440q0 13 9 21.5t21 8.5q13 0 21.5 -8.5t8.5 -21.5v-440q0 -13 -8.5 -21.5t-21.5 -8.5z" />
    <glyph glyph-name="braceright" unicode="}" horiz-adv-x="180" 
d="M90 200q13 0 21.5 -8.5t8.5 -21.5t-8.5 -21.5t-21.5 -8.5t-21.5 -8.5t-8.5 -21.5v-100q0 -38 -26 -64t-64 -26q-13 0 -21.5 8.5t-8.5 21.5t8.5 21.5t21.5 8.5t21.5 8.5t8.5 21.5v100q0 34 23 60q-23 26 -23 60v100q0 12 -8.5 21t-21.5 9t-21.5 8.5t-8.5 21.5t8.5 21.5
t21.5 8.5q38 0 64 -26t26 -64v-100q0 -13 8.5 -21.5t21.5 -8.5z" />
    <glyph glyph-name="asciitilde" unicode="~" 
d="M220 190q0 -28 -20 -48.5t-48 -21.5h-2q-34 0 -61 29q-12 11 -19 11q-10 0 -10 -10q0 -13 -8.5 -21.5t-21.5 -8.5t-21.5 8.5t-8.5 21.5q0 28 20 48.5t48 21.5h2q34 0 61 -29q12 -11 19 -11q10 0 10 10q0 13 8.5 21.5t21.5 8.5t21.5 -8.5t8.5 -21.5z" />
    <glyph glyph-name="Agrave" unicode="&#xc0;" 
d="M219 38q3 -12 -3 -22.5t-18 -14.5q-3 -1 -8 -1q-22 0 -29 22l-17 58h-69l-16 -58q-7 -22 -29 -22q-6 0 -8 1q-12 4 -18 14.5t-3 22.5l80 280q4 12 14.5 18t22.5 3q15 -5 21 -21zM93 140h34l-17 61zM110 380q-12 0 -21 9l-40 40q-9 8 -9 20.5t9 21.5q8 9 20.5 9t21.5 -9
l40 -40q9 -9 9 -21.5t-9 -20.5q-9 -9 -21 -9z" />
    <glyph glyph-name="Aacute" unicode="&#xc1;" 
d="M219 38q3 -12 -3 -22.5t-18 -14.5q-3 -1 -8 -1q-22 0 -29 22l-17 58h-69l-16 -58q-7 -22 -29 -22q-6 0 -8 1q-12 4 -18 14.5t-3 22.5l80 280q4 12 14.5 18t22.5 3q15 -5 21 -21zM93 140h34l-17 61zM110 380q-12 0 -21 9q-9 8 -9 20.5t9 21.5l40 40q8 9 20.5 9t21.5 -9
t9 -21.5t-9 -20.5l-40 -40q-9 -9 -21 -9z" />
    <glyph glyph-name="Acircumflex" unicode="&#xc2;" 
d="M219 38q3 -12 -3 -22.5t-18 -14.5q-3 -1 -8 -1q-22 0 -29 22l-17 58h-69l-16 -58q-7 -22 -29 -22q-6 0 -8 1q-12 4 -18 14.5t-3 22.5l80 280q4 12 14.5 18t22.5 3q15 -5 21 -21zM93 140h34l-17 61zM171 431q9 -9 9 -21.5t-9 -20.5q-9 -9 -21 -9t-21 9l-19 19l-19 -19
q-9 -9 -21 -9t-21 9q-9 8 -9 20.5t9 21.5l40 40q8 9 20.5 9t21.5 -9z" />
    <glyph glyph-name="Atilde" unicode="&#xc3;" 
d="M219 38q3 -12 -3 -22.5t-18 -14.5q-3 -1 -8 -1q-22 0 -29 22l-17 58h-69l-16 -58q-7 -22 -29 -22q-6 0 -8 1q-12 4 -18 14.5t-3 22.5l80 280q4 12 14.5 18t22.5 3q15 -5 21 -21zM93 140h34l-17 61zM220 450q0 -28 -20 -48.5t-49 -21.5h-1q-34 0 -61 29q-12 11 -19 11
q-10 0 -10 -10q0 -13 -8.5 -21.5t-21.5 -8.5t-21.5 8.5t-8.5 21.5q0 28 20 48.5t48 21.5h2q34 0 61 -29q12 -11 19 -11q10 0 10 10q0 13 8.5 21.5t21.5 8.5t21.5 -8.5t8.5 -21.5z" />
    <glyph glyph-name="Adieresis" unicode="&#xc4;" 
d="M219 38q3 -12 -3 -22.5t-18 -14.5q-3 -1 -8 -1q-22 0 -29 22l-17 58h-69l-16 -58q-7 -22 -29 -22q-6 0 -8 1q-12 4 -18 14.5t-3 22.5l80 280q4 12 14.5 18t22.5 3q15 -5 21 -21zM93 140h34l-17 61zM90 410q0 -13 -8.5 -21.5t-21.5 -8.5q-12 0 -21 8.5t-9 21.5t9 21.5
t21 8.5q13 0 21.5 -8.5t8.5 -21.5zM190 410q0 -13 -8.5 -21.5t-21.5 -8.5q-12 0 -21 8.5t-9 21.5t9 21.5t21 8.5q13 0 21.5 -8.5t8.5 -21.5z" />
    <glyph glyph-name="AE" unicode="&#xc6;" horiz-adv-x="440" 
d="M350 60q13 0 21.5 -8.5t8.5 -21.5t-8.5 -21.5t-21.5 -8.5h-160q-13 0 -21.5 8.5t-8.5 21.5v50h-76l-26 -62q-8 -18 -28 -18q-4 0 -12 2q-11 5 -16 17t0 23l120 280q8 18 28 18h200q13 0 21.5 -8.5t8.5 -21.5t-8.5 -21.5t-21.5 -8.5h-130v-80h70q13 0 21.5 -8.5t8.5 -21.5
t-8.5 -21.5t-21.5 -8.5h-70v-80h130zM110 140h50v117z" />
    <glyph glyph-name="Ccedilla" unicode="&#xc7;" 
d="M190 140q13 0 21.5 -8.5t8.5 -21.5q0 -38 -23.5 -68t-59.5 -39q3 -6 3 -13q0 -24 -13.5 -47t-31.5 -23q-6 0 -10.5 4.5t-4.5 10.5q0 8 7 13q10 5 -3 27q-4 5 -4 15q0 7 3 13q-36 9 -59.5 39t-23.5 68v120q0 46 32 78t78 32t78 -32t32 -78q0 -13 -8.5 -21.5t-21.5 -8.5
t-21.5 8.5t-8.5 21.5q0 21 -14.5 35.5t-35.5 14.5t-35.5 -14.5t-14.5 -35.5v-120q0 -21 14.5 -35.5t35.5 -14.5t35.5 14.5t14.5 35.5q0 13 8.5 21.5t21.5 8.5z" />
    <glyph glyph-name="Egrave" unicode="&#xc8;" 
d="M190 60q13 0 21.5 -8.5t8.5 -21.5t-8.5 -21.5t-21.5 -8.5h-160q-13 0 -21.5 8.5t-8.5 21.5v280q0 13 8.5 21.5t21.5 8.5h160q13 0 21.5 -8.5t8.5 -21.5t-8.5 -21.5t-21.5 -8.5h-130v-80h70q13 0 21.5 -8.5t8.5 -21.5t-8.5 -21.5t-21.5 -8.5h-70v-80h130zM130 380
q-12 0 -21 9l-40 40q-9 8 -9 20.5t9 21.5q8 9 20.5 9t21.5 -9l40 -40q9 -9 9 -21.5t-9 -20.5q-9 -9 -21 -9z" />
    <glyph glyph-name="Eacute" unicode="&#xc9;" 
d="M190 60q13 0 21.5 -8.5t8.5 -21.5t-8.5 -21.5t-21.5 -8.5h-160q-13 0 -21.5 8.5t-8.5 21.5v280q0 13 8.5 21.5t21.5 8.5h160q13 0 21.5 -8.5t8.5 -21.5t-8.5 -21.5t-21.5 -8.5h-130v-80h70q13 0 21.5 -8.5t8.5 -21.5t-8.5 -21.5t-21.5 -8.5h-70v-80h130zM90 380
q-12 0 -21 9q-9 8 -9 20.5t9 21.5l40 40q8 9 20.5 9t21.5 -9t9 -21.5t-9 -20.5l-40 -40q-9 -9 -21 -9z" />
    <glyph glyph-name="Ecircumflex" unicode="&#xca;" 
d="M190 60q13 0 21.5 -8.5t8.5 -21.5t-8.5 -21.5t-21.5 -8.5h-160q-13 0 -21.5 8.5t-8.5 21.5v280q0 13 8.5 21.5t21.5 8.5h160q13 0 21.5 -8.5t8.5 -21.5t-8.5 -21.5t-21.5 -8.5h-130v-80h70q13 0 21.5 -8.5t8.5 -21.5t-8.5 -21.5t-21.5 -8.5h-70v-80h130zM171 431
q9 -9 9 -21.5t-9 -20.5q-9 -9 -21 -9t-21 9l-19 19l-19 -19q-9 -9 -21 -9t-21 9q-9 8 -9 20.5t9 21.5l40 40q8 9 20.5 9t21.5 -9z" />
    <glyph glyph-name="Edieresis" unicode="&#xcb;" 
d="M190 60q13 0 21.5 -8.5t8.5 -21.5t-8.5 -21.5t-21.5 -8.5h-160q-13 0 -21.5 8.5t-8.5 21.5v280q0 13 8.5 21.5t21.5 8.5h160q13 0 21.5 -8.5t8.5 -21.5t-8.5 -21.5t-21.5 -8.5h-130v-80h70q13 0 21.5 -8.5t8.5 -21.5t-8.5 -21.5t-21.5 -8.5h-70v-80h130zM90 410
q0 -13 -8.5 -21.5t-21.5 -8.5q-12 0 -21 8.5t-9 21.5t9 21.5t21 8.5q13 0 21.5 -8.5t8.5 -21.5zM190 410q0 -13 -8.5 -21.5t-21.5 -8.5q-12 0 -21 8.5t-9 21.5t9 21.5t21 8.5q13 0 21.5 -8.5t8.5 -21.5z" />
    <glyph glyph-name="Igrave" unicode="&#xcc;" horiz-adv-x="120" 
d="M30 380q-12 0 -21 9l-40 40q-9 8 -9 20.5t9 21.5q8 9 20.5 9t21.5 -9l40 -40q9 -9 9 -21.5t-9 -20.5q-9 -9 -21 -9zM30 0q-13 0 -21.5 8.5t-8.5 21.5v280q0 13 8.5 21.5t21.5 8.5t21.5 -8.5t8.5 -21.5v-280q0 -13 -8.5 -21.5t-21.5 -8.5z" />
    <glyph glyph-name="Iacute" unicode="&#xcd;" horiz-adv-x="120" 
d="M30 0q13 0 21.5 8.5t8.5 21.5v280q0 13 -8.5 21.5t-21.5 8.5t-21.5 -8.5t-8.5 -21.5v-280q0 -13 8.5 -21.5t21.5 -8.5zM30 380q-12 0 -21 9q-9 8 -9 20.5t9 21.5l40 40q8 9 20.5 9t21.5 -9t9 -21.5t-9 -20.5l-40 -40q-9 -9 -21 -9z" />
    <glyph glyph-name="Icircumflex" unicode="&#xce;" horiz-adv-x="120" 
d="M30 0q13 0 21.5 8.5t8.5 21.5v280q0 13 -8.5 21.5t-21.5 8.5t-21.5 -8.5t-8.5 -21.5v-280q0 -13 8.5 -21.5t21.5 -8.5zM91 431q9 -9 9 -21.5t-9 -20.5q-9 -9 -21 -9t-21 9l-19 19l-19 -19q-9 -9 -21 -9t-21 9q-9 8 -9 20.5t9 21.5l40 40q8 9 20.5 9t21.5 -9z" />
    <glyph glyph-name="Idieresis" unicode="&#xcf;" horiz-adv-x="120" 
d="M30 0q-13 0 -21.5 8.5t-8.5 21.5v280q0 13 8.5 21.5t21.5 8.5t21.5 -8.5t8.5 -21.5v-280q0 -13 -8.5 -21.5t-21.5 -8.5zM10 410q0 -13 -8.5 -21.5t-21.5 -8.5q-12 0 -21 8.5t-9 21.5t9 21.5t21 8.5q13 0 21.5 -8.5t8.5 -21.5zM110 410q0 -13 -8.5 -21.5t-21.5 -8.5
q-12 0 -21 8.5t-9 21.5t9 21.5t21 8.5q13 0 21.5 -8.5t8.5 -21.5z" />
    <glyph glyph-name="Ntilde" unicode="&#xd1;" 
d="M190 340q13 0 21.5 -8.5t8.5 -21.5v-280q0 -13 -8.5 -21.5t-21.5 -8.5q-18 0 -26 15l-104 182v-167q0 -13 -8.5 -21.5t-21.5 -8.5t-21.5 8.5t-8.5 21.5v280q0 13 8.5 21.5t21.5 8.5q18 0 26 -15l104 -182v167q0 13 8.5 21.5t21.5 8.5zM220 450q0 -28 -20 -48.5t-49 -21.5
h-1q-34 0 -61 29q-12 11 -19 11q-10 0 -10 -10q0 -13 -8.5 -21.5t-21.5 -8.5t-21.5 8.5t-8.5 21.5q0 28 20 48.5t48 21.5h2q34 0 61 -29q12 -11 19 -11q10 0 10 10q0 13 8.5 21.5t21.5 8.5t21.5 -8.5t8.5 -21.5z" />
    <glyph glyph-name="Ograve" unicode="&#xd2;" 
d="M110 340q46 0 78 -32t32 -78v-120q0 -46 -32 -78t-78 -32t-78 32t-32 78v120q0 46 32 78t78 32zM110 60q21 0 35.5 14.5t14.5 35.5v120q0 21 -14.5 35.5t-35.5 14.5t-35.5 -14.5t-14.5 -35.5v-120q0 -21 14.5 -35.5t35.5 -14.5zM130 380q-12 0 -21 9l-40 40q-9 8 -9 20.5
t9 21.5q8 9 20.5 9t21.5 -9l40 -40q9 -9 9 -21.5t-9 -20.5q-9 -9 -21 -9z" />
    <glyph glyph-name="Oacute" unicode="&#xd3;" 
d="M110 340q46 0 78 -32t32 -78v-120q0 -46 -32 -78t-78 -32t-78 32t-32 78v120q0 46 32 78t78 32zM110 60q21 0 35.5 14.5t14.5 35.5v120q0 21 -14.5 35.5t-35.5 14.5t-35.5 -14.5t-14.5 -35.5v-120q0 -21 14.5 -35.5t35.5 -14.5zM90 380q-12 0 -21 9q-9 8 -9 20.5t9 21.5
l40 40q8 9 20.5 9t21.5 -9t9 -21.5t-9 -20.5l-40 -40q-9 -9 -21 -9z" />
    <glyph glyph-name="Ocircumflex" unicode="&#xd4;" 
d="M110 340q46 0 78 -32t32 -78v-120q0 -46 -32 -78t-78 -32t-78 32t-32 78v120q0 46 32 78t78 32zM110 60q21 0 35.5 14.5t14.5 35.5v120q0 21 -14.5 35.5t-35.5 14.5t-35.5 -14.5t-14.5 -35.5v-120q0 -21 14.5 -35.5t35.5 -14.5zM171 431q9 -9 9 -21.5t-9 -20.5
q-9 -9 -21 -9t-21 9l-19 19l-19 -19q-9 -9 -21 -9t-21 9q-9 8 -9 20.5t9 21.5l40 40q8 9 20.5 9t21.5 -9z" />
    <glyph glyph-name="Otilde" unicode="&#xd5;" 
d="M110 340q46 0 78 -32t32 -78v-120q0 -46 -32 -78t-78 -32t-78 32t-32 78v120q0 46 32 78t78 32zM110 60q21 0 35.5 14.5t14.5 35.5v120q0 21 -14.5 35.5t-35.5 14.5t-35.5 -14.5t-14.5 -35.5v-120q0 -21 14.5 -35.5t35.5 -14.5zM220 450q0 -28 -20 -48.5t-49 -21.5h-1
q-34 0 -61 29q-12 11 -19 11q-10 0 -10 -10q0 -13 -8.5 -21.5t-21.5 -8.5t-21.5 8.5t-8.5 21.5q0 28 20 48.5t48 21.5h2q34 0 61 -29q12 -11 19 -11q10 0 10 10q0 13 8.5 21.5t21.5 8.5t21.5 -8.5t8.5 -21.5z" />
    <glyph glyph-name="Odieresis" unicode="&#xd6;" 
d="M110 340q46 0 78 -32t32 -78v-120q0 -46 -32 -78t-78 -32t-78 32t-32 78v120q0 46 32 78t78 32zM110 60q21 0 35.5 14.5t14.5 35.5v120q0 21 -14.5 35.5t-35.5 14.5t-35.5 -14.5t-14.5 -35.5v-120q0 -21 14.5 -35.5t35.5 -14.5zM90 410q0 -13 -8.5 -21.5t-21.5 -8.5
q-12 0 -21 8.5t-9 21.5t9 21.5t21 8.5q13 0 21.5 -8.5t8.5 -21.5zM190 410q0 -13 -8.5 -21.5t-21.5 -8.5q-12 0 -21 8.5t-9 21.5t9 21.5t21 8.5q13 0 21.5 -8.5t8.5 -21.5z" />
    <glyph glyph-name="Ugrave" unicode="&#xd9;" 
d="M190 340q13 0 21.5 -8.5t8.5 -21.5v-200q0 -46 -32 -78t-78 -32t-78 32t-32 78v200q0 13 8.5 21.5t21.5 8.5t21.5 -8.5t8.5 -21.5v-200q0 -21 14.5 -35.5t35.5 -14.5t35.5 14.5t14.5 35.5v200q0 13 8.5 21.5t21.5 8.5zM130 380q-12 0 -21 9l-40 40q-9 8 -9 20.5t9 21.5
q8 9 20.5 9t21.5 -9l40 -40q9 -9 9 -21.5t-9 -20.5q-9 -9 -21 -9z" />
    <glyph glyph-name="Uacute" unicode="&#xda;" 
d="M190 340q13 0 21.5 -8.5t8.5 -21.5v-200q0 -46 -32 -78t-78 -32t-78 32t-32 78v200q0 13 8.5 21.5t21.5 8.5t21.5 -8.5t8.5 -21.5v-200q0 -21 14.5 -35.5t35.5 -14.5t35.5 14.5t14.5 35.5v200q0 13 8.5 21.5t21.5 8.5zM90 380q-12 0 -21 9q-9 8 -9 20.5t9 21.5l40 40
q8 9 20.5 9t21.5 -9t9 -21.5t-9 -20.5l-40 -40q-9 -9 -21 -9z" />
    <glyph glyph-name="Ucircumflex" unicode="&#xdb;" 
d="M190 340q13 0 21.5 -8.5t8.5 -21.5v-200q0 -46 -32 -78t-78 -32t-78 32t-32 78v200q0 13 8.5 21.5t21.5 8.5t21.5 -8.5t8.5 -21.5v-200q0 -21 14.5 -35.5t35.5 -14.5t35.5 14.5t14.5 35.5v200q0 13 8.5 21.5t21.5 8.5zM171 431q9 -9 9 -21.5t-9 -20.5q-9 -9 -21 -9t-21 9
l-19 19l-19 -19q-9 -9 -21 -9t-21 9q-9 8 -9 20.5t9 21.5l40 40q8 9 20.5 9t21.5 -9z" />
    <glyph glyph-name="Udieresis" unicode="&#xdc;" 
d="M190 340q13 0 21.5 -8.5t8.5 -21.5v-200q0 -46 -32 -78t-78 -32t-78 32t-32 78v200q0 13 8.5 21.5t21.5 8.5t21.5 -8.5t8.5 -21.5v-200q0 -21 14.5 -35.5t35.5 -14.5t35.5 14.5t14.5 35.5v200q0 13 8.5 21.5t21.5 8.5zM90 410q0 -13 -8.5 -21.5t-21.5 -8.5q-12 0 -21 8.5
t-9 21.5t9 21.5t21 8.5q13 0 21.5 -8.5t8.5 -21.5zM190 410q0 -13 -8.5 -21.5t-21.5 -8.5q-12 0 -21 8.5t-9 21.5t9 21.5t21 8.5q13 0 21.5 -8.5t8.5 -21.5z" />
    <glyph glyph-name="germandbls" unicode="&#xdf;" 
d="M183 193q37 -29 37 -83q0 -46 -32 -78t-78 -32q-13 0 -21.5 8.5t-8.5 21.5t8.5 21.5t21.5 8.5q21 0 35.5 14.5t14.5 35.5q0 25 -18 39q-22 22 -22 41q0 18 13 36q7 10 7 24q0 12 -9 21t-21 9q-21 0 -35.5 -14.5t-14.5 -35.5v-200q0 -13 -8.5 -21.5t-21.5 -8.5t-21.5 8.5
t-8.5 21.5v200q0 46 32 78t78 32q38 0 64 -26t26 -64q0 -33 -17 -57z" />
    <glyph glyph-name="agrave" unicode="&#xe0;" 
d="M219 38q3 -12 -3 -22.5t-18 -14.5q-3 -1 -8 -1q-22 0 -29 22l-17 58h-69l-16 -58q-7 -22 -29 -22q-6 0 -8 1q-12 4 -18 14.5t-3 22.5l80 280q4 12 14.5 18t22.5 3q15 -5 21 -21zM93 140h34l-17 61zM110 380q-12 0 -21 9l-40 40q-9 8 -9 20.5t9 21.5q8 9 20.5 9t21.5 -9
l40 -40q9 -9 9 -21.5t-9 -20.5q-9 -9 -21 -9z" />
    <glyph glyph-name="aacute" unicode="&#xe1;" 
d="M219 38q3 -12 -3 -22.5t-18 -14.5q-3 -1 -8 -1q-22 0 -29 22l-17 58h-69l-16 -58q-7 -22 -29 -22q-6 0 -8 1q-12 4 -18 14.5t-3 22.5l80 280q4 12 14.5 18t22.5 3q15 -5 21 -21zM93 140h34l-17 61zM110 380q-12 0 -21 9q-9 8 -9 20.5t9 21.5l40 40q8 9 20.5 9t21.5 -9
t9 -21.5t-9 -20.5l-40 -40q-9 -9 -21 -9z" />
    <glyph glyph-name="acircumflex" unicode="&#xe2;" 
d="M219 38q3 -12 -3 -22.5t-18 -14.5q-3 -1 -8 -1q-22 0 -29 22l-17 58h-69l-16 -58q-7 -22 -29 -22q-6 0 -8 1q-12 4 -18 14.5t-3 22.5l80 280q4 12 14.5 18t22.5 3q15 -5 21 -21zM93 140h34l-17 61zM171 431q9 -9 9 -21.5t-9 -20.5q-9 -9 -21 -9t-21 9l-19 19l-19 -19
q-9 -9 -21 -9t-21 9q-9 8 -9 20.5t9 21.5l40 40q8 9 20.5 9t21.5 -9z" />
    <glyph glyph-name="atilde" unicode="&#xe3;" 
d="M219 38q3 -12 -3 -22.5t-18 -14.5q-3 -1 -8 -1q-22 0 -29 22l-17 58h-69l-16 -58q-7 -22 -29 -22q-6 0 -8 1q-12 4 -18 14.5t-3 22.5l80 280q4 12 14.5 18t22.5 3q15 -5 21 -21zM93 140h34l-17 61zM220 450q0 -28 -20 -48.5t-49 -21.5h-1q-34 0 -61 29q-12 11 -19 11
q-10 0 -10 -10q0 -13 -8.5 -21.5t-21.5 -8.5t-21.5 8.5t-8.5 21.5q0 28 20 48.5t48 21.5h2q34 0 61 -29q12 -11 19 -11q10 0 10 10q0 13 8.5 21.5t21.5 8.5t21.5 -8.5t8.5 -21.5z" />
    <glyph glyph-name="adieresis" unicode="&#xe4;" 
d="M219 38q3 -12 -3 -22.5t-18 -14.5q-3 -1 -8 -1q-22 0 -29 22l-17 58h-69l-16 -58q-7 -22 -29 -22q-6 0 -8 1q-12 4 -18 14.5t-3 22.5l80 280q4 12 14.5 18t22.5 3q15 -5 21 -21zM93 140h34l-17 61zM90 410q0 -13 -8.5 -21.5t-21.5 -8.5q-12 0 -21 8.5t-9 21.5t9 21.5
t21 8.5q13 0 21.5 -8.5t8.5 -21.5zM190 410q0 -13 -8.5 -21.5t-21.5 -8.5q-12 0 -21 8.5t-9 21.5t9 21.5t21 8.5q13 0 21.5 -8.5t8.5 -21.5z" />
    <glyph glyph-name="ae" unicode="&#xe6;" horiz-adv-x="440" 
d="M350 60q13 0 21.5 -8.5t8.5 -21.5t-8.5 -21.5t-21.5 -8.5h-160q-13 0 -21.5 8.5t-8.5 21.5v50h-76l-26 -62q-8 -18 -28 -18q-4 0 -12 2q-11 5 -16 17t0 23l120 280q8 18 28 18h200q13 0 21.5 -8.5t8.5 -21.5t-8.5 -21.5t-21.5 -8.5h-130v-80h70q13 0 21.5 -8.5t8.5 -21.5
t-8.5 -21.5t-21.5 -8.5h-70v-80h130zM110 140h50v117z" />
    <glyph glyph-name="ccedilla" unicode="&#xe7;" 
d="M190 140q13 0 21.5 -8.5t8.5 -21.5q0 -38 -23.5 -68t-59.5 -39q3 -6 3 -13q0 -24 -13.5 -47t-31.5 -23q-6 0 -10.5 4.5t-4.5 10.5q0 8 7 13q10 5 -3 27q-4 5 -4 15q0 7 3 13q-36 9 -59.5 39t-23.5 68v120q0 46 32 78t78 32t78 -32t32 -78q0 -13 -8.5 -21.5t-21.5 -8.5
t-21.5 8.5t-8.5 21.5q0 21 -14.5 35.5t-35.5 14.5t-35.5 -14.5t-14.5 -35.5v-120q0 -21 14.5 -35.5t35.5 -14.5t35.5 14.5t14.5 35.5q0 13 8.5 21.5t21.5 8.5z" />
    <glyph glyph-name="egrave" unicode="&#xe8;" 
d="M190 60q13 0 21.5 -8.5t8.5 -21.5t-8.5 -21.5t-21.5 -8.5h-160q-13 0 -21.5 8.5t-8.5 21.5v280q0 13 8.5 21.5t21.5 8.5h160q13 0 21.5 -8.5t8.5 -21.5t-8.5 -21.5t-21.5 -8.5h-130v-80h70q13 0 21.5 -8.5t8.5 -21.5t-8.5 -21.5t-21.5 -8.5h-70v-80h130zM130 380
q-12 0 -21 9l-40 40q-9 8 -9 20.5t9 21.5q8 9 20.5 9t21.5 -9l40 -40q9 -9 9 -21.5t-9 -20.5q-9 -9 -21 -9z" />
    <glyph glyph-name="eacute" unicode="&#xe9;" 
d="M190 60q13 0 21.5 -8.5t8.5 -21.5t-8.5 -21.5t-21.5 -8.5h-160q-13 0 -21.5 8.5t-8.5 21.5v280q0 13 8.5 21.5t21.5 8.5h160q13 0 21.5 -8.5t8.5 -21.5t-8.5 -21.5t-21.5 -8.5h-130v-80h70q13 0 21.5 -8.5t8.5 -21.5t-8.5 -21.5t-21.5 -8.5h-70v-80h130zM90 380
q-12 0 -21 9q-9 8 -9 20.5t9 21.5l40 40q8 9 20.5 9t21.5 -9t9 -21.5t-9 -20.5l-40 -40q-9 -9 -21 -9z" />
    <glyph glyph-name="ecircumflex" unicode="&#xea;" 
d="M190 60q13 0 21.5 -8.5t8.5 -21.5t-8.5 -21.5t-21.5 -8.5h-160q-13 0 -21.5 8.5t-8.5 21.5v280q0 13 8.5 21.5t21.5 8.5h160q13 0 21.5 -8.5t8.5 -21.5t-8.5 -21.5t-21.5 -8.5h-130v-80h70q13 0 21.5 -8.5t8.5 -21.5t-8.5 -21.5t-21.5 -8.5h-70v-80h130zM171 431
q9 -9 9 -21.5t-9 -20.5q-9 -9 -21 -9t-21 9l-19 19l-19 -19q-9 -9 -21 -9t-21 9q-9 8 -9 20.5t9 21.5l40 40q8 9 20.5 9t21.5 -9z" />
    <glyph glyph-name="edieresis" unicode="&#xeb;" 
d="M190 60q13 0 21.5 -8.5t8.5 -21.5t-8.5 -21.5t-21.5 -8.5h-160q-13 0 -21.5 8.5t-8.5 21.5v280q0 13 8.5 21.5t21.5 8.5h160q13 0 21.5 -8.5t8.5 -21.5t-8.5 -21.5t-21.5 -8.5h-130v-80h70q13 0 21.5 -8.5t8.5 -21.5t-8.5 -21.5t-21.5 -8.5h-70v-80h130zM90 410
q0 -13 -8.5 -21.5t-21.5 -8.5q-12 0 -21 8.5t-9 21.5t9 21.5t21 8.5q13 0 21.5 -8.5t8.5 -21.5zM190 410q0 -13 -8.5 -21.5t-21.5 -8.5q-12 0 -21 8.5t-9 21.5t9 21.5t21 8.5q13 0 21.5 -8.5t8.5 -21.5z" />
    <glyph glyph-name="igrave" unicode="&#xec;" horiz-adv-x="120" 
d="M30 380q-12 0 -21 9l-40 40q-9 8 -9 20.5t9 21.5q8 9 20.5 9t21.5 -9l40 -40q9 -9 9 -21.5t-9 -20.5q-9 -9 -21 -9zM30 0q-13 0 -21.5 8.5t-8.5 21.5v280q0 13 8.5 21.5t21.5 8.5t21.5 -8.5t8.5 -21.5v-280q0 -13 -8.5 -21.5t-21.5 -8.5z" />
    <glyph glyph-name="iacute" unicode="&#xed;" horiz-adv-x="120" 
d="M30 0q13 0 21.5 8.5t8.5 21.5v280q0 13 -8.5 21.5t-21.5 8.5t-21.5 -8.5t-8.5 -21.5v-280q0 -13 8.5 -21.5t21.5 -8.5zM30 380q-12 0 -21 9q-9 8 -9 20.5t9 21.5l40 40q8 9 20.5 9t21.5 -9t9 -21.5t-9 -20.5l-40 -40q-9 -9 -21 -9z" />
    <glyph glyph-name="icircumflex" unicode="&#xee;" horiz-adv-x="120" 
d="M30 0q13 0 21.5 8.5t8.5 21.5v280q0 13 -8.5 21.5t-21.5 8.5t-21.5 -8.5t-8.5 -21.5v-280q0 -13 8.5 -21.5t21.5 -8.5zM91 431q9 -9 9 -21.5t-9 -20.5q-9 -9 -21 -9t-21 9l-19 19l-19 -19q-9 -9 -21 -9t-21 9q-9 8 -9 20.5t9 21.5l40 40q8 9 20.5 9t21.5 -9z" />
    <glyph glyph-name="idieresis" unicode="&#xef;" horiz-adv-x="120" 
d="M30 0q-13 0 -21.5 8.5t-8.5 21.5v280q0 13 8.5 21.5t21.5 8.5t21.5 -8.5t8.5 -21.5v-280q0 -13 -8.5 -21.5t-21.5 -8.5zM10 410q0 -13 -8.5 -21.5t-21.5 -8.5q-12 0 -21 8.5t-9 21.5t9 21.5t21 8.5q13 0 21.5 -8.5t8.5 -21.5zM110 410q0 -13 -8.5 -21.5t-21.5 -8.5
q-12 0 -21 8.5t-9 21.5t9 21.5t21 8.5q13 0 21.5 -8.5t8.5 -21.5z" />
    <glyph glyph-name="ntilde" unicode="&#xf1;" 
d="M190 340q13 0 21.5 -8.5t8.5 -21.5v-280q0 -13 -8.5 -21.5t-21.5 -8.5q-18 0 -26 15l-104 182v-167q0 -13 -8.5 -21.5t-21.5 -8.5t-21.5 8.5t-8.5 21.5v280q0 13 8.5 21.5t21.5 8.5q18 0 26 -15l104 -182v167q0 13 8.5 21.5t21.5 8.5zM220 450q0 -28 -20 -48.5t-49 -21.5
h-1q-34 0 -61 29q-12 11 -19 11q-10 0 -10 -10q0 -13 -8.5 -21.5t-21.5 -8.5t-21.5 8.5t-8.5 21.5q0 28 20 48.5t48 21.5h2q34 0 61 -29q12 -11 19 -11q10 0 10 10q0 13 8.5 21.5t21.5 8.5t21.5 -8.5t8.5 -21.5z" />
    <glyph glyph-name="ograve" unicode="&#xf2;" 
d="M110 340q46 0 78 -32t32 -78v-120q0 -46 -32 -78t-78 -32t-78 32t-32 78v120q0 46 32 78t78 32zM110 60q21 0 35.5 14.5t14.5 35.5v120q0 21 -14.5 35.5t-35.5 14.5t-35.5 -14.5t-14.5 -35.5v-120q0 -21 14.5 -35.5t35.5 -14.5zM130 380q-12 0 -21 9l-40 40q-9 8 -9 20.5
t9 21.5q8 9 20.5 9t21.5 -9l40 -40q9 -9 9 -21.5t-9 -20.5q-9 -9 -21 -9z" />
    <glyph glyph-name="oacute" unicode="&#xf3;" 
d="M110 340q46 0 78 -32t32 -78v-120q0 -46 -32 -78t-78 -32t-78 32t-32 78v120q0 46 32 78t78 32zM110 60q21 0 35.5 14.5t14.5 35.5v120q0 21 -14.5 35.5t-35.5 14.5t-35.5 -14.5t-14.5 -35.5v-120q0 -21 14.5 -35.5t35.5 -14.5zM90 380q-12 0 -21 9q-9 8 -9 20.5t9 21.5
l40 40q8 9 20.5 9t21.5 -9t9 -21.5t-9 -20.5l-40 -40q-9 -9 -21 -9z" />
    <glyph glyph-name="ocircumflex" unicode="&#xf4;" 
d="M110 340q46 0 78 -32t32 -78v-120q0 -46 -32 -78t-78 -32t-78 32t-32 78v120q0 46 32 78t78 32zM110 60q21 0 35.5 14.5t14.5 35.5v120q0 21 -14.5 35.5t-35.5 14.5t-35.5 -14.5t-14.5 -35.5v-120q0 -21 14.5 -35.5t35.5 -14.5zM171 431q9 -9 9 -21.5t-9 -20.5
q-9 -9 -21 -9t-21 9l-19 19l-19 -19q-9 -9 -21 -9t-21 9q-9 8 -9 20.5t9 21.5l40 40q8 9 20.5 9t21.5 -9z" />
    <glyph glyph-name="otilde" unicode="&#xf5;" 
d="M110 340q46 0 78 -32t32 -78v-120q0 -46 -32 -78t-78 -32t-78 32t-32 78v120q0 46 32 78t78 32zM110 60q21 0 35.5 14.5t14.5 35.5v120q0 21 -14.5 35.5t-35.5 14.5t-35.5 -14.5t-14.5 -35.5v-120q0 -21 14.5 -35.5t35.5 -14.5zM220 450q0 -28 -20 -48.5t-49 -21.5h-1
q-34 0 -61 29q-12 11 -19 11q-10 0 -10 -10q0 -13 -8.5 -21.5t-21.5 -8.5t-21.5 8.5t-8.5 21.5q0 28 20 48.5t48 21.5h2q34 0 61 -29q12 -11 19 -11q10 0 10 10q0 13 8.5 21.5t21.5 8.5t21.5 -8.5t8.5 -21.5z" />
    <glyph glyph-name="odieresis" unicode="&#xf6;" 
d="M110 340q46 0 78 -32t32 -78v-120q0 -46 -32 -78t-78 -32t-78 32t-32 78v120q0 46 32 78t78 32zM110 60q21 0 35.5 14.5t14.5 35.5v120q0 21 -14.5 35.5t-35.5 14.5t-35.5 -14.5t-14.5 -35.5v-120q0 -21 14.5 -35.5t35.5 -14.5zM90 410q0 -13 -8.5 -21.5t-21.5 -8.5
q-12 0 -21 8.5t-9 21.5t9 21.5t21 8.5q13 0 21.5 -8.5t8.5 -21.5zM190 410q0 -13 -8.5 -21.5t-21.5 -8.5q-12 0 -21 8.5t-9 21.5t9 21.5t21 8.5q13 0 21.5 -8.5t8.5 -21.5z" />
    <glyph glyph-name="ugrave" unicode="&#xf9;" 
d="M190 340q13 0 21.5 -8.5t8.5 -21.5v-200q0 -46 -32 -78t-78 -32t-78 32t-32 78v200q0 13 8.5 21.5t21.5 8.5t21.5 -8.5t8.5 -21.5v-200q0 -21 14.5 -35.5t35.5 -14.5t35.5 14.5t14.5 35.5v200q0 13 8.5 21.5t21.5 8.5zM130 380q-12 0 -21 9l-40 40q-9 8 -9 20.5t9 21.5
q8 9 20.5 9t21.5 -9l40 -40q9 -9 9 -21.5t-9 -20.5q-9 -9 -21 -9z" />
    <glyph glyph-name="uacute" unicode="&#xfa;" 
d="M190 340q13 0 21.5 -8.5t8.5 -21.5v-200q0 -46 -32 -78t-78 -32t-78 32t-32 78v200q0 13 8.5 21.5t21.5 8.5t21.5 -8.5t8.5 -21.5v-200q0 -21 14.5 -35.5t35.5 -14.5t35.5 14.5t14.5 35.5v200q0 13 8.5 21.5t21.5 8.5zM90 380q-12 0 -21 9q-9 8 -9 20.5t9 21.5l40 40
q8 9 20.5 9t21.5 -9t9 -21.5t-9 -20.5l-40 -40q-9 -9 -21 -9z" />
    <glyph glyph-name="ucircumflex" unicode="&#xfb;" 
d="M190 340q13 0 21.5 -8.5t8.5 -21.5v-200q0 -46 -32 -78t-78 -32t-78 32t-32 78v200q0 13 8.5 21.5t21.5 8.5t21.5 -8.5t8.5 -21.5v-200q0 -21 14.5 -35.5t35.5 -14.5t35.5 14.5t14.5 35.5v200q0 13 8.5 21.5t21.5 8.5zM171 431q9 -9 9 -21.5t-9 -20.5q-9 -9 -21 -9t-21 9
l-19 19l-19 -19q-9 -9 -21 -9t-21 9q-9 8 -9 20.5t9 21.5l40 40q8 9 20.5 9t21.5 -9z" />
    <glyph glyph-name="udieresis" unicode="&#xfc;" 
d="M190 340q13 0 21.5 -8.5t8.5 -21.5v-200q0 -46 -32 -78t-78 -32t-78 32t-32 78v200q0 13 8.5 21.5t21.5 8.5t21.5 -8.5t8.5 -21.5v-200q0 -21 14.5 -35.5t35.5 -14.5t35.5 14.5t14.5 35.5v200q0 13 8.5 21.5t21.5 8.5zM90 410q0 -13 -8.5 -21.5t-21.5 -8.5q-12 0 -21 8.5
t-9 21.5t9 21.5t21 8.5q13 0 21.5 -8.5t8.5 -21.5zM190 410q0 -13 -8.5 -21.5t-21.5 -8.5q-12 0 -21 8.5t-9 21.5t9 21.5t21 8.5q13 0 21.5 -8.5t8.5 -21.5z" />
    <glyph glyph-name="bullet" unicode="&#x2022;" horiz-adv-x="120" 
d="M60 170q0 -13 -8.5 -21.5t-21.5 -8.5q-12 0 -21 8.5t-9 21.5t9 21.5t21 8.5q13 0 21.5 -8.5t8.5 -21.5z" />
    </font>
</defs>
</svg>
