<?xml version="1.0" standalone="no"?>
<!DOCTYPE svg PUBLIC "-//W3C//DTD SVG 1.1//EN" "http://www.w3.org/Graphics/SVG/1.1/DTD/svg11.dtd" >
<svg xmlns="http://www.w3.org/2000/svg" xmlns:xlink="http://www.w3.org/1999/xlink" version="1.1">
<metadata>
Created by FontForge 20170731 at Sat Apr  1 15:16:48 2000
 By Aleksey,,,
Copyright (c) Typographer Mediengestaltung, 2000. All rights reserved.
</metadata>
<defs>
<font id="CaslonAntique-Bold" horiz-adv-x="312" >
  <font-face 
    font-family="Caslon Antique"
    font-weight="700"
    font-stretch="normal"
    units-per-em="1000"
    panose-1="2 0 8 3 0 0 0 0 0 0"
    ascent="800"
    descent="-200"
    x-height="357"
    cap-height="672"
    bbox="-179 -305 827 887"
    underline-thickness="42"
    underline-position="-193"
    unicode-range="U+0020-FFFD"
  />
<missing-glyph horiz-adv-x="475" 
d="M60 0v887h375v-887h-375zM138 806v-725h218v725h-218z" />
    <glyph glyph-name=".notdef" unicode="&#xfffd;" horiz-adv-x="475" 
d="M60 0v887h375v-887h-375zM138 806v-725h218v725h-218z" />
    <glyph glyph-name=".null" horiz-adv-x="0" 
 />
    <glyph glyph-name="nonmarkingreturn" horiz-adv-x="333" 
 />
    <glyph glyph-name="space" unicode=" " horiz-adv-x="325" 
 />
    <glyph glyph-name="exclam" unicode="!" horiz-adv-x="182" 
d="M76 204v23q0 7 -3 31q0 4 -0.5 12t-1.5 12q0 4 -0.5 12t-1.5 12q-1 11 -5 79v-1q0 2 -1.5 6.5t-3.5 12.5l-4 16q-4 12 -5 78q-2 49 -7 96v9q0 24 8 49q7 26 33 31q19 4 27 4q47 0 47 -98q0 -6 -4 -50q-3 -43 -9 -83v-33l-7 -58q-2 -21 -7 -53q-1 -1 -1 -7q0 -2 -0.5 -5
t-0.5 -5l-3 -72q0 -3 -0.5 -12t-1.5 -12v-6v-8v-12q0 -21 -20 -21q-21 0 -26 19v-1q-2 4 -2 35zM89 109q6 0 27 -11q25 -13 26 -16l-1 1q10 -12 10 -34q0 -28 -12 -40q-15 -16 -44 -16q-13 0 -35 22q-11 13 -11 38q0 56 40 56z" />
    <glyph glyph-name="quotedbl" unicode="&#x22;" 
d="M252 654q24 0 42 -36q3 -9 4 -19q4 -9 4 -16q0 -29 -13 -59q0 -5 -7 -31q-11 -67 -31 -67q-12 0 -24 11q-11 5 -11 20q0 1 0.5 6.5t0.5 8.5v10q0 5 -5 37q0 16 -11 57q-1 2 -1 9q0 15 11 37v-1l5 16q11 17 36 17zM93 647q28 0 43 -32l2 -4q9 -19 9 -25v-3l-9 -37v1
l-2 -15q-10 -22 -11 -31q-1 -7 -1 -20q0 -4 -0.5 -11t-0.5 -10q-3 -39 -25 -39q-37 0 -37 86l-3 11q-1 0 -1 1l1 -1q-13 25 -13 50q0 18 4 25q2 16 6 22q18 32 38 32z" />
    <glyph glyph-name="numbersign" unicode="#" horiz-adv-x="500" 
d="M440 285q35 0 35 -24q0 -10 -3 -28q-1 -19 -15 -22l1 1q-15 -4 -59 -5q-35 -1 -45 -8q-8 -11 -8 -27l1 -22q0 -6 -7 -28v1q0 -3 -1 -10t-2 -15.5t-2 -18.5q-1 -37 -30 -37l-18 2h-9q-21 0 -21 21l1 8q4 37 8 56q1 3 3 18l4 20v-2q0 1 1 4v3q6 22 6 25q-2 1 -6 2v-1
q-10 3 -9 3l-31 -1h-24q-10 -2 -12 -7q-2 -2 -5 -21q-7 -21 -8 -25q0 -10 -1 -18l-2 -13q0 -8 -2 -16v1q0 -3 -1 -11.5t-1 -11.5q-9 -36 -35 -36q-25 0 -35 7q-8 8 -8 23q0 13 4 38q0 1 1 7.5t2 9.5v-1q2 18 4 23q6 21 6 31q0 22 -4 22h-10q-2 0 -6 -0.5t-6 -0.5
q-10 -1 -38 -3h-5q-35 0 -38 22v14q0 32 23 40q6 0 15 1l23 2l26 -1q29 0 37 8h-1q5 7 7 44q0 14 6 35v-1q2 6 2 12q0 9 -5 9h-5l-43 -2h2q-5 -1 -12 -1h-3l-2 -1q-41 0 -41 21q0 38 10 48q7 6 31 7l24 2q8 1 26 1q3 0 10.5 0.5t12.5 0.5q19 3 19 28v27q0 7 6 28v-1
q3 14 6 44q5 38 30 38q4 0 17 -3l10 1q21 0 21 -18v-4l-1 -8q-5 -46 -9 -56v-3q-1 -3 -2 -9.5t-2 -14.5l-3 -16q-6 -21 -6 -25q0 -1 6 -3l-1 1l9 -3l31 2q11 0 35 2q1 1 2 3l5 20l3 12q4 15 5 15q0 1 0.5 3t0.5 4q0 1 0.5 5t0.5 6l2 13q2 22 2 38q9 37 36 37q22 0 35 -8
q8 -6 8 -21q0 -7 -3 -26q-1 -3 -1 -14v1l-4 -18l-2 -13q-1 -4 -3 -14q-5 -18 -5 -25q0 -22 7 -22h10q2 0 6.5 0.5t5.5 0.5q4 0 9.5 0.5t7.5 0.5q12 0 17 1l-1 -1q5 2 8 2q27 0 36 -9q6 -6 6 -28q0 -33 -25 -38h-3q-2 -2 -12 -2l-27 -2q-11 0 -43 -2h-6q-10 -1 -14 -9l1 2
l-3 -15l-1 -6q-2 -26 -8 -54q-2 -8 -2 -13q0 -9 3 -9h10q7 1 21 1q4 0 10 0.5t9 0.5q1 0 3 0.5t3 0.5h-1q5 1 12 1zM295 382l-30 -2q-22 0 -33 -1q-1 -1 -1 -2q-1 -3 -7 -25q-2 -6 -3.5 -10t-1.5 -6q-3 -6 -3 -9q0 -8 -1 -17q0 -2 -0.5 -5.5t-0.5 -4.5l-1 -12v-5h-1
q1 -1 4 -1q1 0 3.5 -0.5t4.5 -0.5h-1l29 2h-1q6 1 20 1q2 0 7.5 0.5t8.5 0.5q1 1 2 3q3 14 5 23q7 24 7 26q1 2 1 7q0 1 0.5 3.5t0.5 4.5q1 3 1 8q0 2 0.5 5t0.5 4q1 4 1 6q0 5 -2 5q-2 1 -4 1q-4 0 -5 1zM184 144l1 3z" />
    <glyph glyph-name="dollar" unicode="$" horiz-adv-x="446" 
d="M67 260q5 0 7 -1t7 -1q5 -10 7 -18l7 -14l7 -27l-1 1l6 -15l8 -22l14 -20q7 -21 22 -41q1 -2 19 -15q15 -11 20 -11q1 4 4 12l5 15v29l3 29v-1v5q-1 5 -1 8q0 2 -0.5 8.5t-0.5 10.5q-1 4 -1 11q0 4 2 10l-1 -3q0 2 0.5 6.5t0.5 5.5q1 7 1 15q0 40 -8 56q-1 4 -16 13h1
l-10 5l-11 9l-28 9l-5 5q-2 2 -4 3q-17 12 -36 38q-19 37 -24 50q-4 7 -7 26q-6 23 -6 33q0 15 5 45q8 20 8 21v-1q1 6 4 11q35 76 118 94l13 3q13 3 15 -1l-5 52q0 20 31 20q25 0 25 -20v-14l-1 -18l-3 -19q5 0 13 -1h-1q2 0 4.5 -0.5t3.5 -0.5q9 0 13 -3l47 -18l-2 1
l33 -8q13 -5 19 -13q5 -8 5 -52l1 -14l1 -31v-11q1 -7 1 -23q0 -3 0.5 -9t0.5 -10q1 -4 1 -12q0 -22 -24 -22q-18 0 -22 25l1 -1q-1 1 -2.5 5t-2.5 6q-1 3 -4 10.5l-5 12.5v-1l-19 32q-9 31 -12 35q-5 5 -23 16l-21 14v-2q-3 -12 -5 -22v2l-1 -25l-1 -12l1 -33q0 -24 -1 -39
l-2 -33v-2q0 -11 9 -22q16 -12 36 -25h-2l39 -14q10 -4 13 -7l-2 1q4 -3 29 -40l18 -27l7 -18q8 -20 10 -30l-1 2q11 -50 11 -52q0 -29 -18 -59v1q-1 -1 -3 -6.5t-4 -8.5v1q-2 -6 -12 -24q-11 -16 -13 -23q-4 -5 -9 -6l1 1q-5 -3 -9 -6q-24 -16 -34 -22q-25 -13 -45 -15
q-26 -5 -26 -17q0 -7 4 -23v-8q0 -3 -2 -15v1l-1 -8l2 -34q0 -20 -25 -20q-13 0 -25 12q-5 7 -5 26q-3 12 -3 18q0 8 3 23q0 1 2 5q0 2 -2 10q-1 4 -1 11q-1 11 -6 19q-2 0 -8 1t-13 2q-7 0 -30 13q-22 7 -69 23q-31 9 -31 32q0 11 1 15v-1l1 2v2v8q-2 18 -3 30q0 2 -0.5 5
t-0.5 5q0 5 1 9q0 2 1.5 10.5t2.5 15.5l-2 26l2 12q2 17 5 21q6 10 19 10zM284 246q-6 5 -12.5 9.5t-10 7t-4.5 3.5q-3 -2 -3 -12q0 -1 0.5 -4t0.5 -5q1 -5 1 -15q0 -4 -3 -23v-54q-3 -21 -3 -28q0 -6 1 -12v-20q0 -13 2 -21v-3l13 7q8 3 28 15l-1 -1q18 18 28 46q5 13 5 34
q0 46 -42 76zM193 606q1 0 -0.5 -1t-4.5 -2.5t-6.5 -4t-10.5 -6.5t-13 -8q-4 -3 -13 -25q-8 -26 -8 -33q0 -15 15 -45l-2 2q4 -4 9 -16q0 -1 3 -4l3 -7l-2 1l27 -18l10 -6q6 0 6 36q0 5 -3 23l1 11l-1 18l6 65q-2 20 -16 20z" />
    <glyph glyph-name="percent" unicode="%" horiz-adv-x="553" 
d="M148 680q30 0 45 -9q57 -34 63 -92q1 -9 5 -27l3 -13l1 -6q0 -10 1 -16q2 -14 2 -18q0 -9 -3 -22v1l-1 -10l-5 -43q-4 -32 -18 -54q-23 -32 -39 -43q-25 -17 -58 -17q-41 0 -88 44q-14 14 -20 40v-1q-6 18 -6 24l1 29q0 12 -1 20v3l-1 3h17q-5 1 -10.5 7t-4.5 14
q1 5 1 14q0 2 0.5 9t0.5 10l2 15l4 17v-1q5 33 22 60q18 36 35 46q26 16 52 16zM424 357q28 0 44 -9q55 -32 64 -91q2 -11 5 -28l3 -13l1 -6q0 -1 0.5 -6t0.5 -8q1 -6 1 -19q0 -11 -1 -17v1v-3l-1 -2l-1 -10l-6 -44q-6 -48 -40 -84q-31 -29 -74 -29q-41 0 -88 44v-1
q-11 10 -21 39q0 2 -0.5 5t-1.5 5q-3 10 -3 15v29q0 15 -1 26v1q0 7 1 18q2 14 3 33l1 16l6 17v-1q4 32 20 61q21 37 37 46q25 15 51 15zM469 684q32 0 32 -25q0 -9 -4 -16l-63 -108v1q-3 -6 -7.5 -17t-6.5 -15q-4 -9 -23 -37q-6 -9 -50 -87v1q-5 -11 -9 -18l-14 -17
q-2 -2 -9 -19q-4 -10 -9 -20q-34 -67 -40 -83q-6 -17 -18 -29l-28 -31l-4 -13q-2 -3 -3 -5q-7 -13 -10 -20q-5 -11 -14 -22v1q-5 -6 -10 -20q-1 -2 -20 -29l-9 -11q-29 -49 -34 -56q-6 -6 -19 -6q-36 0 -36 26q0 4 6 14q0 1 11 20q5 8 23 42v-1q3 4 28 39l-1 -1l13 26l28 49
v-1l9 18l8 13q12 21 25 34q12 14 32 61q5 14 20 33l9 20l26 40h-1l17 31q8 13 15 25t11.5 19.5t5.5 8.5q1 4 3 7q9 18 30 63q1 1 2 3q1 1 4 5.5l5 7.5l-1 -1q9 16 26 48q16 30 27 41q8 11 27 11zM384 232l-2 -26v-17q1 -3 1 -8l-3 -35v-34q0 -16 3 -21q11 -39 26 -43
q8 -2 19 -2q13 0 22 11q6 10 7 31q0 3 2 9l-1 -3q0 1 0.5 4t0.5 5q2 8 3 23q3 28 3 32q0 6 -1 17l1 19l-2 15v44q-4 6 -4 10q-3 11 -4 13q-6 24 -31 24t-33 -13q-4 -6 -6 -35l-2 -9zM108 554l-2 -26v-6q0 -7 1 -11v-7l-3 -35l1 -14l-1 -20q1 -14 3 -23v1q11 -39 26 -43
q8 -2 19 -2q27 0 29 42q0 4 2 16q2 14 3 23q3 28 3 30q0 9 -1 20l1 18l-1 14l-1 44l-4 11l-3 12v-1q-8 26 -32 26q-25 0 -32 -13q-4 -6 -6 -35l-2 -9v-12zM213 145v1v-1z" />
    <glyph glyph-name="ampersand" unicode="&#x26;" horiz-adv-x="546" 
d="M309 579v13v2q-2 6 -2 12q-1 15 -20 15q-15 0 -25 -12q-19 -20 -19 -42v-6q0 -1 1 -3v-3l-1 -27q0 -1 19 -31l-1 1q14 -23 23 -29q11 -8 40 -18q6 -6 6 -11q0 -15 -17 -15h-13q-3 0 -7 0.5t-11.5 1t-14.5 0.5h-10q-17 0 -47 -28q-36 -23 -42 -106q-2 -7 -3.5 -13.5
t-2.5 -9.5l-1 -4q0 -6 1 -11q0 -3 5 -23v1q5 -10 5 -23l-3 -27q0 -12 8 -50q1 -13 10 -39l-1 1q7 -16 12 -21q22 -22 32 -26q11 -4 35 -7q23 -6 26 -6q6 0 39 10v-1q1 0 5.5 2t6.5 3l10 3q5 2 14 15l10 11q18 17 23 28q19 32 19 50v2l-1 12q-3 38 -5 49q-5 24 -17 35
q-5 3 -5 4q-5 -5 -12 -13q-10 -13 -26 -13q-21 0 -30 23q-7 14 -7 33q0 34 21 54q6 5 10 9q2 2 6.5 5.5t6.5 5.5q24 20 33 24q17 6 50 10h-2l34 10l29 7q6 3 19 10h1q3 2 8 2q17 0 17 -15q0 -6 -30 -30l-18 -18l-20 -16q-11 -11 -23 -20h-3l-1 -1q-4 -2 -8 -3.5t-6 -2.5
l-4 -2t-3 -1q0 -2 3 -7q2 -1 6.5 -4.5t10.5 -7.5q34 -29 35 -91q5 -23 5 -35q0 -33 -2 -47q-4 -18 -25 -43q-8 -12 -13 -22q-15 -27 -30 -39q-18 -13 -31 -16l-18 -4h1q-54 -18 -115 -18q-35 0 -40 1q-3 4 -12 7q-44 17 -87 61q-1 1 -4.5 4t-10.5 8l-14 10q-13 7 -27 33
q-2 7 -12 32q-1 3 -3 8t-5 13.5t-5 14.5v-1q-1 4 -1 19q0 1 -0.5 6.5t-0.5 8.5l-1 31h19q0 7 -1 8t-8 1q-1 1 -2 2.5t-3 7t-2 11.5q1 32 26 91q17 36 38 53l28 23q2 1 6.5 2.5t12.5 5t16 6.5q6 1 6 4q0 6 -8 22q-12 18 -15 28q-7 21 -7 41q0 25 15 59q7 19 21 39
q17 17 51 34h-1q19 11 47 11q102 0 102 -93q0 -55 -37 -55q-16 0 -24 14q-7 17 -7 26zM351 51h1h-1z" />
    <glyph glyph-name="quotesingle" unicode="'" horiz-adv-x="137" 
d="M81 651q10 0 22.5 -15t13.5 -27v-12q4 -9 4 -14v-5q0 -22 -11 -55q-2 -6 -7 -31q-9 -67 -28 -67q-6 0 -16 10t-10 15l2 60l-2 4q-8 15 -8 24l-2 13v-1l-6 38q0 13 8 32q13 31 40 31z" />
    <glyph glyph-name="parenleft" unicode="(" horiz-adv-x="263" 
d="M124 582q9 20 18 25l11 17l9 15l8 7l7 12q1 2 5 9t7 12v-1q13 21 26 21q16 0 16 -18q0 -4 -17 -33q-1 -2 -18 -38v2l-11 -31l-4 -10l1 1l-7 -24q-9 -34 -9 -44v-26v-2q-1 -1 -1.5 -4t-0.5 -5.5t-1 -5.5v1q0 -2 -1 -11t-2 -14l-3 -14q-3 -20 -6 -53l-2 -19q0 -2 1 -4
q1 -5 1 -16l1 -16q1 -15 1 -23q0 -12 -2 -27q-1 -5 -1 -11v-2q1 -2 1.5 -6t0.5 -7q1 -3 1.5 -12t0.5 -13q0 -32 1 -67q2 -43 16 -79q1 -3 5 -16q6 -30 12 -37h-1l14 -26q0 -1 13 -24v1q10 -16 10 -24q0 -19 -16 -19q-12 0 -35 32q-9 14 -28 48q-33 33 -46 91q-2 10 -20 61
l-5 21v-1q-4 11 -15 54q-3 22 -3 43q0 4 3 25v-2q2 52 7 111l18 75l8 31q16 30 32 70z" />
    <glyph glyph-name="parenright" unicode=")" horiz-adv-x="268" 
d="M83 699q15 0 32 -37q8 -15 16 -26l18 -30v1q6 -9 19 -31l-1 2q2 -2 11 -29v1q2 -4 4.5 -13.5t3.5 -12.5v1l18 -34q2 -5 5 -18v-2l4 -28v1l13 -62l1 -35v2l4 -22q0 -7 -2 -17l-1 -2v-3q0 -3 -0.5 -10t-1.5 -10v1q-2 -23 -3 -28q-1 -8 -3 -39q0 -10 -10 -43l1 1
q-7 -26 -15 -42l-4 -11l-6 -15q-20 -49 -20 -51q-21 -38 -33 -53q-12 -18 -27 -39l-8 -10v1q-22 -31 -37 -31q-7 0 -9 1.5t-2 9.5q0 10 16 30q11 14 29 68q0 1 0.5 3.5t2 5t1.5 3.5q3 6 6 14t5 12t3 8v-1q5 20 5 34q1 1 3 14q5 24 5 30t1 10v-1q0 1 0.5 3t0.5 3l2 13v-1
l1 22v11v-1l1 28q0 20 4 41v-2q0 1 -0.5 4t-1 8t-0.5 11q-2 11 -3 24q0 12 1 20v-1q0 1 0.5 3.5t0.5 4.5q1 6 2 18l2 13q-4 19 -5 35l-1 13q-3 35 4 35l7 8h-16v11q0 3 0.5 7t0.5 5q0 4 -8 36q-10 38 -12 46h1l-3 9v-1q-7 18 -9 24q0 2 -1 6.5t-2 6.5l1 -1q-1 3 -17 24
q-14 20 -14 27q0 19 20 19z" />
    <glyph glyph-name="asterisk" unicode="*" horiz-adv-x="343" 
d="M79 596q11 0 23 -8h-1l11 -5l5 -4l16 -5q8 -5 16 -9q-2 5 -3 8q3 21 3 23q-2 9 -6 25l1 -1q-2 5 -2 11q0 24 23 33h-1q11 4 19 4q11 0 24 -18l2 -14l3 -13l-1 -14v1l-1 -38q0 -9 8 -9q13 0 35 18q8 4 24 4l-3 -1q15 6 18 6q25 0 25 -48q0 -17 -17 -26q-4 -2 -15 -2
q-1 0 -3.5 -0.5t-4.5 -0.5l-24 -6l-17 1q-5 -2 -5 -10l7 -10l15 -19l5 -9q11 -11 14 -17v1q5 -8 5 -24q0 -15 -10 -25q-17 -14 -28 -14q-16 0 -38 40l-6 13l-4 13l1 -2l-10 22l-10 -13q-3 -3 -3 -4l-4 -6q-1 -4 -3 -8q-1 -2 -2.5 -8.5t-3.5 -10.5q-1 -6 -19 -18
q-6 -4 -21 -4q-11 0 -23.5 13t-12.5 24q0 9 12 26l-1 -1l8 12l10 10l9 11q12 9 12 17q0 -3 -2 -1l1 -1q-30 7 -54 17l1 -1l-10 3q-19 6 -19 19v2l2 13q2 14 3 22q8 16 27 16z" />
    <glyph glyph-name="plus" unicode="+" horiz-adv-x="437" 
d="M76 364h6q16 0 31 -1l38 2q5 0 8 -1h-1q5 -1 9.5 -2t7 -1.5t3.5 -0.5q10 0 10 3v29q2 18 3 24q-2 9 -2 20v12l-4 35q0 40 30 40q38 0 44 -20q4 -12 4 -45q0 -1 0.5 -4t0.5 -5q1 -6 1 -17q0 -8 -1 -12q-1 -2 -1 -6q-1 -6 -1 -12q0 -15 7 -34v1q0 -3 5 -3q8 0 21 1h-1
q5 1 12 1q1 0 6 -0.5t8 -0.5q5 -1 9 -1q7 0 21 2t17 2q6 0 18 -2h5q24 -5 24 -30q0 -38 -20 -42q-7 0 -16 -1q-33 -3 -35 -3q-9 0 -20 1h-14q-38 0 -44 -8q-4 -3 -4 -13q0 -4 4 -23l1 -3v-3t0.5 -1t0.5 -1v2q1 -4 1 -13q0 -8 -1 -13q-2 -12 -2 -14q0 -4 3 -34v-13
q0 -26 -25 -26q-6 0 -18 3l-11 -1q-20 0 -22 28q0 7 -1 11l-1 3v4q-1 6 -1 14q0 10 3 23q1 5 1 8q0 7 -1 18v-1q-1 5 -1 9q0 2 1 6q0 2 0.5 6.5t0.5 5.5q1 6 1 12t-9 6h1q-8 2 -10 2h-1l-30 -2h-29l-22 -4q-4 2 -6 2q-1 0 -3.5 0.5t-3.5 0.5l-12 1q-23 5 -23 22v16l-3 19
q0 22 33 22z" />
    <glyph glyph-name="comma" unicode="," horiz-adv-x="168" 
d="M97 101h3q20 -1 30 -21q0 -1 1.5 -4t3.5 -8t5 -11l8 -23q1 -3 1 -22q0 -4 -3 -21q-6 -34 -31 -55h1q-18 -13 -21 -14l1 1q-22 -8 -47 -8q-14 0 -14 15q0 9 7 19q1 2 27 23q5 5 5 19q0 15 -14 23q-9 5 -15 11q-5 8 -5 18q0 30 20 44q9 6 37 14z" />
    <glyph glyph-name="hyphen" unicode="-" horiz-adv-x="180" 
d="M21 194l20 -1h16l16 -2h-1q4 0 13 3q6 1 10 1q3 0 10.5 -0.5t11.5 -0.5q8 -1 18 -1q1 0 6 0.5t9 0.5q12 2 17 2q17 0 29 -13l-1 1q6 -6 6 -12q0 -3 -4 -10q-1 -1 -1 -3q0 -21 -4 -26l1 1q-8 -10 -17 -10q-11 0 -17 1h1q-2 0 -6 1l-10 2q-8 0 -20 -2q-3 -2 -7 -2h-3l-25 3
l-15 -3q-3 0 -7 0.5t-5 0.5h-4l-18 -1l-10 -1q-4 -1 -9 -1q-12 0 -19 10q-2 3 -2 8l5 41q5 11 16 13z" />
    <glyph glyph-name="period" unicode="." horiz-adv-x="167" 
d="M80 93q8 0 27 -9q24 -12 25 -13q9 -9 9 -29q0 -22 -11 -35q-13 -13 -43 -13q-11 0 -34 18q-12 12 -12 33q0 48 39 48z" />
    <glyph glyph-name="slash" unicode="/" horiz-adv-x="407" 
d="M383 699q28 0 28 -24q0 -11 -5 -18l-14 -29q-1 -1 -3 -7t-4 -9v1q-2 -5 -7.5 -16.5t-5.5 -12.5q-18 -33 -19 -38l-8 -28q-4 -10 -32 -60v1q-26 -57 -56 -113q-7 -8 -16 -34q-18 -41 -20 -43l1 1q-10 -18 -14 -25l-1 -1l-5 -22q-3 -9 -13 -26l-11 -20l-14 -15l-8 -29
q-18 -32 -25 -41l-7 -23q-25 -33 -32 -48q-14 -35 -21 -42q-6 -7 -25 -7q-17 0 -26 11q-4 4 -4 10q0 7 8 20l-1 -1q1 1 17 32l9 16v-1l8 25q10 12 23 37v-1l13 33l25 48q21 48 25 56q4 10 17 29l13 19l12 33q11 23 14 29q28 60 30 64q3 5 13 21t17 29q1 0 1 1l-1 -1l7 19
l19 40l-1 -1q11 43 16 49q5 8 13 22v-2q3 9 5 12q2 4 6 13.5t6 14.5q6 8 8 13q12 26 20.5 32.5t24.5 6.5z" />
    <glyph glyph-name="zero" unicode="0" horiz-adv-x="437" 
d="M221 690l40 -2q29 -4 70 -45l8 -8h-1q13 -18 21 -30q18 -26 26 -53v1q6 -18 10 -52q1 -25 9 -64l4 -32q1 -11 3 -34q2 -20 2 -30q0 -13 -5 -41v2l-1 -22l-4 -35l-2 -22l-4 -29q0 -61 -40 -126l-4 -6q-40 -62 -84 -75q-27 -7 -47 -7q-41 0 -84 37q-51 45 -67 83
q-11 31 -14 44q0 3 -1 5v3q-1 2 -1 3v-1q-9 39 -9 58v7q1 7 1 21q0 4 -0.5 10t-1 18t-0.5 22v8h18q-1 0 -5 4.5t-8 13t-4 16.5q1 34 4 67l3 26l8 35v-1q4 36 16 75l12 30q3 7 9 19q27 61 50 77q37 29 73 30zM234 632q-18 0 -35 -11q-9 -6 -14 -11q-18 -11 -26 -67l-2 -28v1
l-1 -33l-2 -25l1 -19q0 -8 -2 -28q-2 -16 -2 -21q0 -16 1 -29q1 -7 1 -12q0 -7 -6 -57l1 -30q0 -11 -1 -17v1q-1 -2 -1 -5v-4q0 -30 6 -66l4 -23l5 -24q5 -37 24 -65q2 -2 6 -6.5t7 -7.5q1 -2 27 -4q8 -1 15 -1q19 0 31 20q11 14 17 43v-1q2 10 4 50l4 26l1 11l2 20l2 30
l4 71q0 1 -0.5 4t-0.5 6v22l1 32l-1 33l-2 102q-3 13 -9 40q-5 25 -19 59v-1q-13 25 -40 25z" />
    <glyph glyph-name="one" unicode="1" horiz-adv-x="246" 
d="M160 692q30 0 30 -32v-4l-1 -13v-31l-1 -23v-94l-4 -80v1l-5 -106v-48v-14v-42l1 -22v-36l2 -22q0 -6 2 -28v-2q2 -5 14 -28l-1 1q14 -23 14 -33q0 -14 -11 -25q-14 -11 -20 -11l-38 2q-24 -2 -51 -2q-35 0 -35 29q0 16 6 27v-1q1 4 14 30q4 5 6 9q3 12 3 14l1 85l3 32
q1 6 1 21q0 3 0.5 11t0.5 12v18q0 13 -1 30v-1q-1 5 -1 13q0 14 1 24v-1q0 3 0.5 8t0.5 7q0 3 2 90v24q-7 80 -10 88q-1 2 -3.5 6t-3.5 6q-4 2 -10 8h1l-21 15l1 -1q-11 4 -11 21q0 22 45 39l10 5q10 4 18 7q35 17 51 17z" />
    <glyph glyph-name="two" unicode="2" horiz-adv-x="399" 
d="M200 590l-2 -1q-2 -1 -9 -3t-13 -4q-44 -6 -76 -31q-3 -3 -11 -3q-21 0 -21 21q0 15 32 61q36 54 100 54q44 0 63 -4q11 -3 31 -14q1 -1 3 -2t5 -3t6 -3q37 -21 45 -30h-1q32 -38 32 -90v-5l-1 -29l1 -23q0 -26 -17 -75q-14 -34 -52 -78l-5 -5h1q-10 -12 -49 -52h1
q-3 -4 -10 -11.5t-10 -11.5q-3 -3 -12 -14t-15 -17q-23 -33 -30 -41l-9 -12q-6 -9 -22 -29q-5 -11 -7 -15q5 0 11 -1q1 -1 5 -1q3 -1 6 -1h-1l30 2q3 0 9 0.5t8 0.5q3 0 7 -0.5t5 -0.5q7 0 29 -3q5 -1 9 -1q14 0 33 8q7 5 10 7l-1 -1l15 21l-1 -2q4 8 16 8q27 0 27 -27
q0 -4 -3 -19q-1 -3 -2.5 -11.5t-2.5 -12.5v1l-3 -17q-1 -7 -1 -16q0 -5 -2 -11q-8 -45 -36 -45q-17 0 -28 1q-20 2 -25 2q-12 0 -21 -1h-17q-20 0 -51 -3h-24q-18 0 -45 3l-50 -3q-31 0 -31 31q0 21 18 54q9 18 15 27l2 3q2 2 6 7t7 8l2 3q2 3 5.5 7.5t5.5 6.5q3 4 20 27.5
t32 43.5l53 70l13 16q17 22 24 35q52 88 52 155q0 9 -9 39q-3 18 -4 20q-1 5 -10 12q-40 28 -55 28z" />
    <glyph glyph-name="three" unicode="3" horiz-adv-x="412" 
d="M67 197q27 0 45 -27q18 -26 18 -48q0 -3 -1 -7q0 -2 -0.5 -6.5t-0.5 -6.5q-1 -7 -1 -14v-3l8 -8q30 -31 45 -31q31 0 59 20q11 9 18 18q1 0 7 9q0 1 1 1t1 1q3 5 9 16.5t7 12.5q9 21 14 73l1 14v-1q0 3 -2 11l-1 1q0 1 -1 2.5t-2 3.5t-7 11.5t-10 16.5q-17 31 -21 35
q-22 28 -68 41h1q-27 6 -27 30q0 20 63 44q6 1 29 41q21 40 21 66q0 11 -5 28q-1 4 -2 6v-1q-1 6 -9 21q-18 41 -70 41q-44 0 -61 -14q-14 -10 -24 -10q-20 0 -20 24q0 38 48 62q32 19 60 19q19 0 41 -11q63 -29 71 -35q26 -17 36 -29q10 -13 23 -35l9 -16q5 -15 5 -32
q0 -11 -1 -22v-2q0 -67 -65 -120h1q-19 -17 -19 -21q0 -1 12 -13q35 -26 59 -65l9 -13q2 -7 9 -17q10 -32 10 -81v-6q0 -2 -0.5 -6t-0.5 -6v-7q-2 -37 -10 -58v1q-15 -42 -41 -58q-21 -15 -45 -24h1l-13 -9l-28 -8q-22 -11 -30 -12q-13 0 -23 -1l-33 -1h-2q-33 0 -74 40
q-13 13 -53 61q-12 17 -12 55q0 59 42 59z" />
    <glyph glyph-name="four" unicode="4" horiz-adv-x="399" 
d="M338 649v-27q0 -4 -0.5 -11.5t-0.5 -9.5v-178q0 -6 1 -10v-7q0 -2 -0.5 -9.5t-0.5 -11.5q-1 -8 -1 -19v-11l15 -15q6 -6 6 -27q0 -22 -21 -43l-4 -4l1 -23l-1 -35l-1 -20l1 -24v-71q0 -3 0.5 -11t0.5 -11v-11q0 -58 -37 -58q-52 0 -65 15l-7 14v3q10 51 10 77q0 4 -7 33
v14q0 18 3 75v-1l1 20q0 1 0.5 4.5t0.5 5.5v7q0 12 -27 12h-115q-15 1 -36 1h-5q-49 0 -49 34q0 12 15 34l30 31q7 7 21 28l6 9l9 11q18 28 54 60l8 8l9 11l12 15v-1l18 23l9 10q4 4 12.5 15.5t13.5 16.5q7 11 19 20q1 1 3.5 5t6 9t7.5 10l-1 -1l5 5l16 22q5 7 18 23
q11 8 19 8q28 0 28 -39zM170 363l54 -6q7 0 10 3q3 18 8 75v40q-1 15 -1 46q-6 -4 -17 -16l1 1q-6 -8 -36 -37l-1 -2q-2 -2 -5.5 -6t-4.5 -6v1q-1 -3 -5 -7l-13 -20l1 1q-1 -2 -5 -8.5t-8 -12.5t-7 -11q-1 -1 -2 -3l-1 -1l-5 -9q-4 -6 -7 -9l-1 -2l-1 -2l1 2q-2 -2 -4.5 -6
t-4.5 -6q1 0 3 -0.5t3 -0.5l15 -2l12 1h2q3 1 19 3zM234 12q-3 0 -3 5q2 -4 3 -5zM337 353l-1 2q0 -2 1 -2z" />
    <glyph glyph-name="five" unicode="5" horiz-adv-x="398" 
d="M76 189q19 0 32 -16.5t13 -37.5q0 -11 -1 -18v-3l-1 -3q-1 -7 -1 -14q0 -38 35 -52q14 -6 35 -8l7 -1h2q15 0 44 19q9 6 17 14l-2 -3q1 1 2 3t2.5 4.5t3.5 4.5l6 9l10 15l7 14q1 3 2.5 7t2.5 6t1 3q2 6 2 21q0 2 0.5 7.5t0.5 9.5v9q1 5 1 6q0 5 -1 16q-5 83 -49 123v-1
q-35 30 -51 37h1q-25 10 -66 12q-48 1 -48 35q0 13 9 70q0 1 0.5 7.5t0.5 11.5q0 3 0.5 11t0.5 13q5 46 6 55q2 6 2 41q1 51 15 60q13 5 29 5h12q9 1 27 1q30 0 36 1h8q1 0 3.5 -0.5t4.5 -0.5h12q2 0 18 2q4 1 14.5 1.5t15.5 0.5q10 0 16 1q5 1 11 1q34 0 34 -25
q0 -9 -18 -32q-4 -4 -13 -16q-16 -22 -45 -31q-6 -2 -48 -9l1 1q-5 -2 -19 -8q-8 -2 -24 -2h-14q-8 0 -9 -4l-2 -22q0 -9 -3 -18q-4 -14 -4 -15q0 -4 1 -4l16 -8q3 -2 22 -7q1 0 44 -20q0 -2 3 -2l-1 1q19 -8 23 -12q7 -7 22 -19l10 -10q1 -1 4.5 -4t5.5 -5q18 -20 22 -29
l15 -31l-1 1l14 -22l10 -25l4 -15v1q5 -22 5 -29q1 -15 1 -65q-2 -35 -3 -44q-11 -36 -46 -96q-23 -38 -65 -66l1 1q-24 -17 -71 -17q-6 0 -10 1h-9q-18 0 -32 5v-1q-20 5 -37 16q-36 20 -47 37q-32 48 -32 91q0 25 15 43q13 16 32 16z" />
    <glyph glyph-name="six" unicode="6" horiz-adv-x="445" 
d="M342 702q27 0 27 -21q0 -11 -8 -16q-10 -8 -45 -27q-19 -13 -55 -50q-32 -33 -47 -68q-1 -1 -7.5 -13.5t-11.5 -21.5v1q-1 -3 -2.5 -6.5t-4.5 -8.5t-5 -9q-1 -1 -2 -2.5t-1 -2.5q-16 -26 -20 -41q-5 -17 -5 -21q0 -2 -1 -2q1 0 9 2l-1 -1q15 4 39 6q1 0 5.5 0.5t6.5 0.5
l52 4q29 0 45 -5q12 -4 38 -23q26 -17 29 -24v1q20 -29 23 -35h-1q8 -13 18 -35q4 -9 9.5 -21.5t6.5 -14.5l3 -8v1q2 -14 2 -31q0 -20 -1 -39q0 -23 -6 -41q-29 -83 -86 -117q-38 -22 -57 -24q-21 -4 -44 -4q-65 0 -78 7q-18 9 -58 49q-32 31 -37 40q-29 50 -33 73
q-2 9 -4 44l-3 49v8q0 21 6 78q3 26 10 51q12 41 26 72l15 25v-1q6 12 27 46q78 103 160 145q5 3 10 5.5t9.5 4.5t6.5 3t5 3q26 15 36 15zM213 349q-73 0 -74 -105q0 -2 -0.5 -12t-0.5 -16v-28q0 -16 35 -81q22 -39 42 -47q27 -7 48 -7q20 0 38 13q12 7 23 32.5t11 62.5
q0 47 -1 53q-1 23 -12 55q-5 10 -8 18q0 1 -1 2l1 -3q-23 37 -41 48q-30 15 -60 15z" />
    <glyph glyph-name="seven" unicode="7" horiz-adv-x="374" 
d="M217 558h-22l-22 1q-7 -1 -29 -1q-4 0 -13.5 -0.5t-14.5 -0.5q-24 -2 -48 -34q-8 -11 -24 -11q-21 0 -21 21q0 17 19 90l2 14v7q7 55 36 55q12 0 18 -8q6 -5 17 -20q0 -1 71 -2l31 -1q12 0 21 1q8 0 45 -3h1h-1l18 2q18 -1 34 -1q39 0 39 -25q0 -12 -6 -23l-34 -67v1
l-12 -32v1l-6 -18q-4 -12 -12 -30q0 -4 -3 -9q-2 -5 -10.5 -30t-16.5 -45v1q-15 -45 -31 -89l-8 -19v1l-6 -19l-11 -25v1l-13 -35l-14 -39v1l-26 -77q-2 -4 -3 -7.5t-3 -8.5t-3 -9h1q-2 -6 -8 -20l1 1q-7 -34 -21 -44q-8 -3 -26 -4q-23 -6 -41 -6q-43 0 -43 25q0 8 20 46
q2 5 16 29q7 12 7 16l1 1l1 1q1 1 7 12.5t10 19.5v-1q7 14 11 20q21 38 40 93q3 5 16 30.5t21 40.5v-1l7 16q1 2 8 18.5t12 25.5q1 4 5 11t5 10q13 23 19 46q3 10 26 60l14 37l-1 -3v1l1 1l1 1v1q0 2 -6 3l-13 2zM64 112v-1l-1 -1l-1 -1z" />
    <glyph glyph-name="eight" unicode="8" horiz-adv-x="438" 
d="M264 692q15 0 22 -4l16 -7h-1q28 -11 37 -20q31 -30 45 -71q11 -30 12 -36q2 -22 2 -44q0 -10 -5 -40q-9 -46 -30 -61q-1 0 -3.5 -2t-5.5 -4q-3 -3 -11 -7q-5 -4 -9 -8t-7 -6l-2 -2q3 -3 17 -12q9 -7 18 -16.5t10 -10.5l2 -3l4 -6q7 -14 13 -25l5 -8l7 -18q10 -23 12 -31
q0 -19 1 -35q0 -2 0.5 -8.5t0.5 -9.5v-8q0 -60 -28 -107q-29 -47 -32 -50v1q-16 -18 -39 -30q-50 -21 -79 -21h-24q-57 0 -96 33q-8 5 -27 24l-2 3q-2 3 -7 11l-10 16q-19 29 -22 53q-3 34 -3 76q0 38 14 66q9 18 40 49l21 19q11 9 11 11q0 12 -33 60q-19 28 -24 85
q0 2 -0.5 7t-0.5 7q-1 12 -1 29q0 22 5 33q9 21 27 46l16 19q20 25 52 37l3 2q3 1 8 4t11 6q22 14 70 14zM225 294q-19 7 -27 8q-11 -2 -19.5 -4t-12 -3t-4.5 -1q-6 -6 -9 -11l-14 -17q-1 -1 -9 -12.5t-12 -18.5v-3l-1 -2q-5 -19 -10 -44l-1 -2v-3q-5 -22 -5 -26q0 -7 9 -31
q12 -35 41 -56q22 -18 35 -19q14 -3 21 -3q39 0 48 3q15 4 25 14q42 50 42 96q0 8 -3 26q-5 28 -6 29q-3 8 -26 34q-7 9 -26 26q-3 2 -15 9t-21 11zM253 622q-44 0 -70 -27q-26 -24 -26 -56q0 -15 3 -26q2 -9 24 -39q9 -11 34 -32q3 -2 9 -8q1 -1 3.5 -4t5 -5.5t5.5 -4.5
q3 -1 14 -1t15 3l-2 -2q4 4 8 7q-1 -1 1 1t6 4l8 8q46 39 46 97q0 28 -25 53l-26 26v-1q-11 7 -33 7z" />
    <glyph glyph-name="nine" unicode="9" horiz-adv-x="439" 
d="M210 688l18 -1l31 2q14 0 38 -14h-1l8 -4l28 -19q49 -38 69 -71q9 -15 18 -63q7 -28 7 -57q0 -12 4 -52q1 -3 1 -26q0 -24 -10 -81l-23 -69l-7 -15q-1 -1 -1 -2q-9 -20 -15 -32v2q-3 -8 -30 -43q-31 -42 -69 -77v1q-2 -2 -35 -30q-5 -5 -20 -11q-2 0 -3 -1l4 1l-80 -40
q-29 -8 -31 -8q-22 0 -22 22q0 17 23 29q18 9 33 19q1 0 1 2l29 23l-1 -1l12 11q48 47 78 102l19 34v-1l4 9q10 25 10 41v4q-1 0 -2.5 -2t-2.5 -2q-16 -12 -47 -12h-17l-24 1q-42 1 -53 4q-10 4 -29 19q-41 29 -70 89q-13 24 -22 54q-2 14 -2 58q0 63 23 101q30 45 62 71
q27 18 61 28q28 7 36 7zM211 617q-17 0 -40 -18q-15 -11 -25 -29q-14 -28 -14 -90q0 -91 28 -125v1q31 -34 64 -34q36 0 44 2q29 8 45 28q10 10 10 27v40q0 12 1 19q2 14 2 18v6q0 22 -27 82q-8 18 -19 36l1 -1q-27 38 -70 38z" />
    <glyph glyph-name="colon" unicode=":" horiz-adv-x="167" 
d="M81 106q7 0 26 -11q24 -11 26 -16l-1 1q10 -10 10 -33q0 -25 -11 -38q-13 -16 -44 -16q-13 0 -33 22v-1q-12 13 -12 37q0 55 39 55zM81 335q9 0 26 -10q24 -13 25 -14q10 -12 10 -34q0 -24 -11 -38q-5 -6 -20.5 -11.5t-23.5 -5.5q-13 0 -33 24v-1q-12 12 -12 37
q0 53 39 53z" />
    <glyph glyph-name="semicolon" unicode=";" horiz-adv-x="168" 
d="M97 107h3q19 -1 30 -22q0 -1 1.5 -4t4 -9t4.5 -12l8 -24q1 -3 1 -24q0 -4 -3 -22q-6 -38 -31 -58h1q-14 -12 -21 -14l1 1q-21 -9 -47 -9q-14 0 -14 16q0 10 7 20q2 3 27 24q5 5 5 20q0 17 -14 25v-1q-11 8 -14 13q-6 7 -6 19q0 30 20 46q4 4 37 15zM83 346q7 0 28 -10
q24 -14 25 -15q9 -9 9 -33q0 -28 -11 -39q-12 -18 -45 -18q-11 0 -33 24v-1q-13 15 -13 38q0 54 40 54z" />
    <glyph glyph-name="less" unicode="&#x3c;" horiz-adv-x="477" 
d="M455 618v-58l-292 -192l292 -197v-119l-414 281v15z" />
    <glyph glyph-name="equal" unicode="=" horiz-adv-x="437" 
d="M78 294h21h-1l6 -1l44 1h4q26 -2 29 -2q4 0 16 2h4q2 0 27 0.5t49 0.5q3 0 34 3h8q2 0 11 -0.5t15 -0.5q11 -1 26 -1q16 0 22 -2v1q17 -3 17 -20v-16l2 -12q0 -22 -31 -22q-23 0 -38 1q-4 1 -12 1q-5 0 -24 -4h-19q-20 -1 -54 -1h-20h-4q-35 -3 -40 -3q-1 0 -4 0.5
t-5 0.5q-11 0 -18 1h-10q-7 0 -14 -1q-1 0 -6 -0.5t-7 -0.5l-40 3q-20 2 -20 16v1l1 15l-1 18q0 22 32 22zM46 374q0 22 32 22q6 -1 24 -2l45 2h5q13 -2 30 -2h19q16 1 76 3q3 0 34 3h8v-17q1 2 4.5 5.5t12 6.5t18.5 3h17q16 0 22 -2v1q17 -5 17 -21v-14l2 -14
q0 -21 -31 -21q-24 0 -39 1q-4 1 -9 1q-7 0 -26 -4h-13q-44 -2 -61 -2q-16 0 -23 1q-24 -3 -39 -3h-8q-12 0 -20 1h-10q-7 0 -14 -1h-12l-41 1q-20 3 -20 17v2l1 15z" />
    <glyph glyph-name="greater" unicode="&#x3e;" horiz-adv-x="477" 
d="M41 53v59l291 192l-291 197v117l414 -279v-16z" />
    <glyph glyph-name="question" unicode="?" horiz-adv-x="344" 
d="M167 691q9 0 24 -3q9 -1 30 -5q13 -1 35 -23q32 -35 46 -57q20 -34 20 -113q0 -12 -12 -47l-10 -22l-22 -33q-7 -13 -26 -45q-6 -9 -18 -21l-2 -4l-24 -45l-10 -17v2q0 -2 -3 -11q-13 -32 -16 -45v-2q-3 -30 -4 -34q-8 -11 -21 -11q-21 0 -21 25q0 5 6 64q0 10 6 28l8 25
q0 2 5 21q0 1 1 3.5t2 3.5q9 21 22 60l16 47l6 10v-1l7 21q3 10 6.5 21t5.5 16.5t2 7.5l-2 21q-2 20 -5 34l1 -3q-2 4 -2 8v-1l-3 11q-4 29 -24 50q-13 11 -37 11t-41 -14q-11 -9 -11 -29q0 -3 2 -11q4 -3 16 -21q6 -7 6 -25q0 -32 -18 -47q-8 -5 -22 -5t-21 5q-8 4 -19 20
q-3 2 -7 10q-10 14 -10 29q0 14 8 43v-1q2 15 15 37l-1 -2q3 6 18 21q16 17 30 26h-1q11 7 36 12t33 5zM157 108q7 0 26 -8q4 -1 32 -13q11 -13 11 -40q0 -28 -14 -36q-3 -3 -30 -15h1q-8 -4 -16 -4q-10 0 -35 19q-19 13 -19 47q0 50 44 50zM149 281q-2 -6 -3 -7q2 4 3 7z
M222 557l-2 2z" />
    <glyph glyph-name="at" unicode="@" horiz-adv-x="674" 
d="M381 505q30 0 44 -25v1v-2l8 6l34 -2l22 -2q15 -5 15 -25q0 -9 -2 -21q-3 -19 -12 -68l-11 -70q-6 -30 -12 -53h1q0 -18 9 -18q21 0 46 26q56 54 56 87v2l-1 26q-1 34 -3 43q-1 3 -2 6.5t-2 8t-2 6.5l-1 2q0 2 -0.5 4t-1.5 5l-2 6q-7 28 -15 54q-5 18 -53 69q-2 2 -8.5 9
t-9.5 10q-2 2 -4.5 5t-3.5 4q-8 5 -42 13h1q-14 4 -43 5l-33 5l-8 -1q-10 -2 -35 -11q-46 -19 -52 -24q-26 -20 -58 -50q-24 -27 -54 -77l1 3q-4 -11 -9 -29l-6 -18l1 1l-13 -72l5 -58v1q1 -5 1 -16q0 -5 0.5 -9t1.5 -6v-2q8 -24 15 -51l10 -34h-1q0 -2 2 -4q0 -1 33 -35
q8 -12 17 -24q1 -1 11.5 -7.5t19.5 -11.5l3 -3l-1 2q15 -7 31 -21q14 -7 31 -10l29 -2q12 -1 25 -1h6q38 0 55 4l-1 -1q7 2 33 16q12 7 59 29l-2 -1l21 18q59 47 72 48h-1q2 0 5 0.5t5 1.5l7 2q1 3 4 4q4 2 7 2q16 0 16 -17q0 -13 -25 -44q-15 -19 -33 -36l1 1
q-45 -40 -107 -67q-33 -13 -60 -19l2 1q-11 -3 -43 -4q-42 -3 -55 -3q-46 0 -79 13l1 -1q-15 5 -53 33q-4 4 -28 20l-24 24q-23 23 -38 43l-16 28h1q-3 5 -12.5 20t-14.5 23l1 -1q-3 3 -6 19l-1 4q-1 5 -2 8l1 -1l-12 38q0 1 -1 3q0 10 -1 23l-3 42q0 35 9 99q6 32 25 71
l16 34l14 17l9 13l15 17l-1 -1q24 28 55 57q81 54 179 54q113 0 179 -54q50 -41 59 -53q16 -23 28 -44v1l15.5 -31t12 -25.5t5.5 -12.5q9 -24 9 -68q0 -43 -10 -74q-18 -71 -86 -112q-42 -26 -98 -44v1l-6 -2q-5 -3 -10 -3l-26 1q-7 -1 -17 -1q-27 0 -30 14l-3 7l-18 -9
q-8 -4 -39 -11l-19 -4q-14 0 -33 8q-20 7 -29 16q-16 16 -22 31q-20 45 -20 70q0 37 17 88q27 72 75 101q19 12 61 22h-1q25 7 34 7zM383 419q-24 0 -47 -7q-28 -11 -42 -36q-10 -14 -12 -24l-3 -18l-8 -44q0 -21 11 -45q8 -18 37 -18q39 0 57 31h-1q11 20 17 35q2 16 8 43
q0 5 2 8l-1 -2q1 1 1 2l5 21v-2l1 22l2 21q0 2 -3 5q-9 8 -24 8zM206 104l-2 1q1 -1 2 -1z" />
    <glyph glyph-name="A" unicode="A" horiz-adv-x="516" 
d="M431 -2q-5 0 -36 6q-24 -8 -37 -8q-25 0 -25 20q0 12 17 25q25 20 25 45q0 14 -9 41q-2 4 -3 8q-3 11 -14 35v-1q-6 10 -16 62l1 -1q-10 29 -39 29l-3 1h-3q-12 2 -28 7q-15 6 -33 6q-30 0 -42 -6q-12 -5 -21 -36v1q-7 -27 -15 -39h1q-11 -19 -16 -36q-2 -6 -3 -11
q0 -1 -1 -5.5t-2 -5.5l1 1q0 -3 -0.5 -8.5t-1.5 -7.5q-3 -19 -3 -22q0 -14 3 -22h1l1 -1q2 -2 6 -6.5t11 -12t13 -13.5q14 -14 14 -22q0 -22 -33 -22q-14 0 -32 1h-34l-42 -1q-33 0 -33 24q0 14 9 20l18 14q5 2 16 32v-1q2 6 18 27q1 1 10 38q1 1 19 44v-1q2 7 7 19l16 43
q23 61 48 133q0 1 1.5 4.5t4 9.5t4.5 11q4 14 21 54q23 60 28 74q15 52 22 98q7 45 33 45q13 0 22 -22q1 -2 4.5 -12t11.5 -34t16 -47q3 -6 7 -16l10 -20q1 -4 6 -27q0 -2 1 -4.5t2.5 -7t2.5 -8.5h-1q5 -15 6 -23q6 -17 16 -35l27 -72l9 -32v1l16 -54q3 -9 10.5 -35
t12.5 -41l-1 1q8 -18 23 -70q13 -43 29 -62q2 -1 5 -3.5t8.5 -6.5t9.5 -7q10 -8 10 -22q0 -21 -26 -26v1q-6 -2 -30 -2q-4 0 -12.5 -0.5t-13.5 -0.5zM279 420q-12 38 -18 44l-7 -13q-16 -27 -20 -34v2q-13 -44 -13 -58q0 -6 2 -14q5 -10 32 -15h-1q13 -3 15 -4v1
q15 -3 19 -3q3 0 3 3q0 49 -12 91zM399 5q-2 0 -3 -1q1 0 3 1z" />
    <glyph glyph-name="B" unicode="B" horiz-adv-x="498" 
d="M141 674l11 -1l15 -1q15 -2 36 -3q1 0 5.5 -0.5t6.5 -0.5q7 -1 13 -1h65l15 -1h-1q24 0 81 -39q31 -15 44 -29q40 -46 40 -124q0 -29 -13 -52q-25 -42 -42 -59q-16 -12 -22 -18l1 1l-1 -1v-1v-1q0 -6 9 -12q10 -7 38 -38l13 -23h-1q23 -38 23 -72v-13q-1 -11 -1 -20v-3
q0 -63 -56 -117q-65 -48 -102 -48h-1q-16 -1 -38 -1h-45l-70 1q-16 0 -25 1q-20 2 -24 2q-6 0 -12 -1q-1 0 -3 -1h-3q-9 -1 -24 -1q-27 0 -27 23q0 12 6 18l27 31q12 28 15 62q3 59 3 92v214q0 18 -1 28v6q1 6 1 16q3 18 3 21v6q0 3 -0.5 7t-1 11t-0.5 13q-3 23 -7 37
q-2 6 -3.5 11.5t-1.5 6.5v-2q-2 3 -5 6t-7.5 8.5t-8.5 10.5q-12 9 -12 22q0 19 15 22l-2 -1q9 2 42 4q3 0 21 3q6 1 12 1zM248 323h-37q-9 -1 -13 -28q-2 -10 -2 -22v-48l-3 -16q0 -4 1 -7q0 -2 0.5 -6.5t0.5 -5.5l-1 -59q-1 -12 -9.5 -26t-12.5 -16h18q0 -8 2 -10
q9 -14 28 -22q12 -6 15 -6h1l19 2q17 2 34 3q26 19 30 23q29 23 38 54l-1 -1q2 12 3 30q0 8 1 15v46q-2 28 -5 33q-15 21 -35 40q-26 27 -72 27zM273 603l-36 7q-13 -4 -30 -21q-2 -7 -4 -17v1q-2 -8 -3 -29l-3 -26q0 -4 2 -9q3 -16 3 -49q0 -10 -1 -21v-8q0 -31 20 -45
q7 -7 18 -7q28 0 43 11l24 16q6 4 31 19l-3 -1q25 29 25 75q0 2 -4 42v-1q-3 15 -17 24q-14 10 -17 16l1 -1q-5 6 -9.5 10.5t-7 7.5t-3.5 4h-2q-3 0 -27 2zM287 55h1h-1z" />
    <glyph glyph-name="C" unicode="C" horiz-adv-x="613" 
d="M368 688q93 0 179 -52q9 -6 35 -16q17 -5 19 -25q3 -23 3 -63q0 -2 -0.5 -8t-0.5 -9q-1 -5 -1 -12v-27q0 -21 -20 -21q-13 0 -22 18q-1 1 -4 9q-4 6 -7 14q-2 6 -8 16q-3 6 -8 14q-3 5 -3 6q-8 13 -14 15l-32 23q-14 11 -51 36l1 -1q-8 3 -45 9q-21 4 -34 4t-26 -7
q-26 -7 -61 -36q-25 -15 -29 -19l1 1q-31 -36 -44 -61q-21 -48 -21 -58v-43q0 -3 -1 -6q0 -1 -0.5 -4.5t-0.5 -4.5q-10 -31 -10 -37q0 -4 1 -7q3 -21 3 -36v-6q0 -3 -0.5 -8t-0.5 -7q-1 -6 -1 -11v-3l2 -15v-34q0 -10 20 -53q17 -31 29 -43q38 -43 77 -55v1q24 -8 49 -8
l48 1q8 0 38 2h7q4 0 9 1q22 1 28 6q18 10 40 37l-1 -1q13 24 30 49q6 7 7 14v-2v2q1 2 1 3q4 31 27 31q24 0 24 -32q0 -19 -1 -33q0 -3 -0.5 -9t-0.5 -10v-29q-2 -30 -4 -37v1q-3 -9 -15 -17l-15 -8l2 1h-2q-32 -21 -43 -24l-28 -9v1q-36 -14 -57 -14h-63q-3 0 -8.5 0.5
t-6.5 0.5h-3q-10 0 -25 -1q-31 4 -35 5q-13 4 -39 18q-33 19 -34 20l-23 18q-39 28 -66 55q-23 25 -61 93q-15 26 -26 64q-4 13 -4 88q0 59 6 89q11 52 41 88l-1 -2q5 6 6 7q18 21 19 25l24 40q14 23 89 58q65 28 69 29q38 11 73 11z" />
    <glyph glyph-name="D" unicode="D" horiz-adv-x="605" 
d="M92 666q23 0 43 -5h-2h3q3 -1 6 -1q5 0 40 8l55 3q3 -1 24 -1q3 0 10.5 -0.5t12.5 -0.5q32 -1 80 -3q16 -1 72 -34l7 -4l14 -13l-2 2q40 -23 62 -54q12 -9 44 -53q18 -52 20 -66q6 -41 6 -62v-101q0 -27 -17 -81q-7 -25 -10 -29q-2 -5 -19 -33q-14 -27 -32 -49
q-23 -21 -39 -32l1 1q-2 -1 -5.5 -3t-4.5 -3l-14 -8q-6 -4 -61 -23h1q-2 -1 -5 -2t-7 -2t-6 -2q-39 -15 -58 -17q-14 0 -36 -1q-3 0 -8 -0.5t-6 -0.5l-10 1q-8 -3 -13 -3q-2 0 -3.5 -0.5t-2.5 -0.5q-6 0 -10 1q-1 0 -5 1t-7.5 1.5t-7.5 1.5q-6 1 -34 1q-17 0 -30 1l-27 -1
l-34 1l-16 -1q-24 1 -24 29q0 16 10 23h-1l4 2q5 3 9 5q3 1 12 8q21 16 21 52v8q0 12 4 34q2 24 2 27q0 10 -2 38v7v7v11v-1q2 16 2 41v1q-2 12 -2 31v48q0 15 -2 49q-1 16 -1 28q0 19 2 35q3 18 3 22q0 2 -2 22q-2 21 -3 27q-7 28 -9 33q-1 3 -13 17l2 -1l-8 6q-1 0 -5 2.5
t-6 4.5q-13 10 -13 25q0 26 51 26zM293 604q-75 0 -78 -51q-2 -23 -8 -55q0 -2 7 -32v-18q0 -3 -2 -19q0 -5 -1 -13.5t-1.5 -15.5t-0.5 -13q0 -37 -1 -59q-1 -2 -1 -5v-4l4 -46q-1 -19 -3 -36v1l-1 -24l-1 -25q1 -5 1 -15q3 -20 3 -25q0 -10 -2 -30v-6q-1 -2 -1 -4
q0 -19 14.5 -36t32.5 -17l3 1q3 1 11 3.5t17 4.5l31 5l22 5q2 1 27 10q3 2 17 18l22 26q2 3 8 9l-1 -1l3.5 3.5t3.5 4.5l6 9q8 14 12 19q2 3 8 11q2 2 8 10q4 7 7 21q0 1 0.5 3.5t0.5 4.5q0 1 1.5 13.5t2.5 20.5l7 39q0 4 0.5 9t1.5 12t1 11q2 22 2 27l-3 26l-1 27
q0 7 -2 37v5q0 1 -2.5 5t-7 12t-8.5 16q-9 19 -34 56q-11 11 -40 27l-6 3l2 -1q-4 3 -18 13h1q-21 13 -32 19h1q-14 4 -33 4z" />
    <glyph glyph-name="E" unicode="E" horiz-adv-x="473" 
d="M77 670l21 -1q1 0 8 0.5t12 0.5q4 0 13 0.5t16 0.5q8 0 21 1h11q3 0 8.5 0.5t7.5 0.5q24 0 43 -5q8 -3 10 -3q7 1 19 3l-1 -1q4 2 15 2q12 0 24 1q10 1 24 1q23 0 48 -6l2 -1h3h-3q11 1 19 3l2 1h4h6q29 0 32 -24q2 -5 3 -37v-15v-16v-10q1 -3 2 -11.5t2 -15.5
q0 -8 1 -11q1 -4 1 -12q0 -25 -20 -25l-9 5q-8 5 -15 10q-6 6 -22 40l-8 15q-7 11 -9 13l-4 4q-8 8 -22 14v-1q-6 1 -31 3q-2 2 -7 2h-3l-2 1q-30 10 -44 10q-37 0 -38 -16v-9q0 -1 -0.5 -5.5t-0.5 -6.5l-2 -14v-9q-6 -33 -6 -49v-3q0 -2 0.5 -17t0.5 -23q0 -20 -1 -40
q0 -37 23 -37q12 0 22 7q31 21 46 39q11 14 22 14q13 0 21 -18v-11q0 -2 0.5 -6.5t0.5 -7.5l2 -18v-14q0 -11 -2 -41l-1 -15q0 -10 1 -22q0 -5 2 -13v-5q0 -9 -8 -28v1q-3 -12 -16 -12q-9 0 -23 17l-11 14l-8 22l-16 16q-4 6 -8 10t-24 4q-12 0 -14 -5l1 -1v-4v-5.5v-7.5
q0 -3 -0.5 -11t-0.5 -13q0 -18 -4 -35q-6 -26 -6 -36q0 -9 1 -20l-1 -26q0 -21 -1 -33q0 -2 -0.5 -7t-0.5 -6l-2 -12v-3q0 -22 48 -24h3q3 0 14 -1l25 -3q5 0 32 8q16 4 17 7l20 18q20 14 22 18l-1 -2q8 15 21 52v-1q6 21 25 21q22 0 22 -30q0 -69 -4 -92v1l-2 -40
q-7 -26 -32 -26q-6 0 -45 9q-2 0 -4.5 0.5t-4.5 1.5q-24 -4 -30 -4h-6q-2 0 -42 2l-70 -3q-1 0 -7 0.5t-9 0.5q-7 1 -17 1h-6q-32 0 -68 -1l-41 -2q-26 0 -26 20q0 15 12 24q0 6 7 6q2 1 7.5 3t8.5 3q15 16 18 23q3 11 4 32q0 5 0.5 10t1.5 11t1 9q-1 5 -1 17v53
q-1 11 -1 21l1 10v7q0 18 5.5 38t10.5 31.5t7 13.5l-18 -1q-1 9 -2 30v-1q-1 5 -1 21q0 15 1 23v26l2 42q2 35 5 52l-6 28q-7 31 -10 37q-13 18 -42 37q-8 5 -8 17q0 30 37 30z" />
    <glyph glyph-name="F" unicode="F" horiz-adv-x="447" 
d="M59 666l18 -1q5 1 24 3q5 1 12 1q9 0 50 -7h-2q7 0 27 3h-1q3 0 7.5 0.5t7.5 1.5q3 0 10 1l8 1h-1q42 3 69 3q6 0 48 -3h1h-1l8 1q15 0 29 1h18q9 1 19 1q33 0 33 -26l-1 -23v-9q0 -2 0.5 -7t0.5 -8v-75q0 -28 -20 -28t-44 41l-1 1q0 1 -1 4t-3 7t-7 15t-7 17
q-7 13 -26 23h1l-12 4l-4 2h1l-4 2l-37 -4q-5 0 -9 2h1q-10 3 -23 3q-28 0 -45 -23q-3 -2 -4 -19q0 -1 -1 -3v-3q0 -2 -1 -11t-2 -15v-23q0 -14 -1 -22q-1 -2 -1 -5v-6q0 -12 4 -45v-11q-3 -18 -3 -30q0 -14 6 -16t27 -2q18 0 28 4l-1 -1q30 19 44 40q16 28 27 28
q21 0 21 -74q0 -3 -2 -9l1 1q-5 -40 -5 -48q0 -1 2 -11q5 -35 5 -46q0 -22 -20 -22q-13 0 -20 12l-19 35q-8 16 -29 26q-18 9 -36 9q-26 0 -26 -46q-2 -33 -4 -46v-37l1 -17v-89q2 -6 3 -15q0 -1 0.5 -4t0.5 -4q0 -2 1 -3l4 -11q2 -1 17 -11q18 -11 18 -25q0 -18 -21 -18
q-17 0 -46 3v1q-1 0 -3 -1l-15 -1l-37 4l-61 -4q-19 0 -19 18q0 12 25 34l-1 -1q13 17 21 40q10 25 10 45v89l-1 16v27l-1 24v80l-1 24l5 32l-1 32l1 25v18v13q0 14 -1 19q0 2 -3 15q-1 3 -2.5 8.5t-2.5 9.5l1 -1q-4 12 -5 16l1 -1q-1 1 -1 2.5t-1 2.5q0 1 -1 1q-6 8 -13 17
q-5 7 -9 8l-17 9h1q-11 3 -11 20q0 25 30 25z" />
    <glyph glyph-name="G" unicode="G" horiz-adv-x="650" 
d="M360 685q58 0 106 -4q17 -1 34 -8l37 -17l-1 1q17 -4 45 -19q28 -21 28 -54q0 -39 -3 -90q-2 -22 -4.5 -33.5t-5 -13.5t-7.5 -2h-1q-20 0 -46 68v-1q-5 20 -12 27l-21 15q-5 9 -26 30q-1 0 -4 3q-5 4 -8 6q-22 16 -49 21q-42 8 -47 8q-53 0 -101 -30q-29 -17 -41 -30
q-24 -27 -37 -66q-5 -17 -14 -57q-12 -48 -12 -51q1 -4 3 -30v-18q0 -2 -0.5 -10.5t-0.5 -12.5l-1 -45l-3 -29q0 -4 11 -46l2 -5q2 -5 7.5 -17t10.5 -25q25 -60 94 -90q40 -15 66 -15q11 0 51 9q9 1 28 3q50 3 50 78q0 16 -8.5 28t-21.5 13q-27 1 -33.5 4.5t-6.5 19.5
q0 12 14 22q11 0 32 4q11 1 22 2.5t16 2t6 0.5t61 -5h9q5 0 10 1t13 1q23 0 27 -24v-5q0 -12 -6 -18l-17 -19l1 1q-2 -1 -3 -36v-23l-1 -38q0 -18 -3 -40t-30 -22q-8 0 -26 2q-7 1 -18 1q-2 0 -35 -10l-36 -3l-25 -3l-15 -2q-22 -2 -37 -4q-14 -2 -15 -2h-2q-62 0 -79 6
q-70 27 -116 68q-28 27 -40 46q-39 56 -55 109l1 -1q-1 2 -3 9t-3 9t-4 9t-4 11l1 -1q-16 37 -16 75q0 17 1 30v-1q0 4 0.5 9.5t0.5 7.5v13q2 45 24 97q24 59 66 111q22 27 52 43l-1 -1q4 3 10 8q32 22 68 34q7 2 15 4.5t11.5 4t4.5 1.5q8 0 30.5 0.5t35.5 0.5z" />
    <glyph glyph-name="H" unicode="H" horiz-adv-x="691" 
d="M83 670q12 0 25 -1h10q12 -1 39 -1h28l44 1q31 0 31 -22q0 -13 -9 -19l-19 -15q-22 -19 -22 -72q0 -5 3 -46v-15q0 -19 -2 -37q0 -3 -0.5 -9.5t-1.5 -9.5q-3 -18 -3 -21q0 -21 36 -30q15 -3 58 -3h35q41 0 57 4l56 -7h5q13 0 39 13q11 5 11 14q0 2 -2 14v5q0 5 -1 8l1 9
v41l3 44q-3 15 -3 23q0 14 1 22q1 4 1 7q0 25 -12 42q-2 3 -10 6h1q-25 7 -25 25q0 22 30 22h34q3 0 7.5 0.5t6.5 0.5l1 -1h4q1 0 5.5 -0.5t6.5 -0.5l3 -1q3 0 23 2q2 0 5.5 0.5l7 1t6.5 1t5 0.5h1q53 0 53 -20q0 -9 -34 -39q-13 -15 -13 -69q0 -5 1 -10q1 -8 1 -17
q0 -2 -0.5 -7t-0.5 -8v-10q0 -13 4 -64l-2 -21q0 -18 -1 -41q0 -15 -1 -24q-1 -2 -1 -5q-1 -3 -1 -8q0 -7 3 -40v-13l-1 -35l-1 -115v-5q0 -45 16 -62l2 -1q6 -3 16 -11h-1q15 -12 15 -23q0 -20 -23 -20q-15 0 -30 3h-91q-2 0 -5.5 -0.5t-4.5 -0.5q-9 -1 -23 -1
q-23 0 -23 19q0 6 5 11l28 26q9 9 13 36q2 14 3 60l1 11q-5 14 -5 21l1 44q0 4 0.5 9.5t0.5 7.5t0.5 4.5t0.5 3.5q0 37 -6 44q-8 10 -49 11q-9 0 -18 1h-7q-4 0 -10 -0.5t-9 -0.5q-12 -1 -29 -1q-10 0 -15 1q-2 0 -5 0.5t-4 0.5h-15q-1 0 -4 -0.5t-7.5 -1t-8.5 -0.5h-4
q-9 0 -34 4q-14 2 -22 2q-45 0 -51 -28v-31l-1 -25q0 -1 0.5 -7.5t0.5 -12.5q0 -4 0.5 -15t0.5 -17v-11q0 -4 -3 -30q0 -3 0.5 -6.5t0.5 -4.5l-1 -6q9 -25 19 -51l-1 3q22 -25 27 -29q18 -13 18 -23q0 -17 -19 -17h-87q-15 0 -18 1q-5 2 -13 2q-7 0 -25 -2q-10 -1 -27 -1
q-52 0 -52 26q0 20 29 26q30 7 38 23q5 12 6 35q1 8 1 62q0 12 -1 21q0 2 -0.5 8t-0.5 9q-1 12 -1 24q0 8 3 42q1 5 1.5 14.5t0.5 14.5v8q-2 30 -2 43q0 20 6 54q1 2 1 7q0 4 -1 9q-1 17 -1 44q0 7 1 15v31l-1 28v21q0 44 -36 55q-23 4 -23 27t36 23z" />
    <glyph glyph-name="I" unicode="I" horiz-adv-x="250" 
d="M75 671l54 -3q31 4 44 4q48 0 48 -34q0 -11 -13 -22q-14 -13 -17 -21q-8 -24 -8 -135q0 -8 1 -20q0 -8 0.5 -28t0.5 -32v-26q0 -41 -2 -83q-1 -3 -1 -13q0 -7 1 -14q1 -15 1 -30q0 -7 -1 -14v-9q0 -3 3 -28l1 -52v1l1 -15l8 -16q1 -4 4 -10q0 -1 0.5 -2.5t1.5 -3.5t1 -3
l14 -14q9 -16 9 -23q0 -25 -18 -25h-28q-3 0 -4 -1q-7 -1 -19 -1h-3q-2 1 -4 1q-1 0 -5 0.5t-7 0.5l-40 -1h-4q-11 0 -33 8q-11 6 -11 22q0 10 7 17l22 20q6 10 6 25q0 3 2 13q0 3 0.5 11t1.5 15q2 6 2 10t-2 16q-1 7 -1 19q0 18 1 31v-1q0 2 0.5 7t0.5 7q3 28 3 42
q0 5 -3 37v-1q-1 3 -1.5 11t-0.5 11l3 32l-1 2v3t-0.5 5.5t-0.5 7.5v99q0 4 -1 9q-1 12 -3 40q0 2 -0.5 6t-0.5 6l-1 53q-2 16 -19 33h1q-19 15 -19 29q0 25 29 27z" />
    <glyph glyph-name="J" unicode="J" horiz-adv-x="257" 
d="M92 676h2q27 -4 31 -4h6q39 6 44 6q32 0 32 -32q0 -6 -17 -23v-11l-1 -9l-1 -14q-2 -22 -2 -63q0 -34 1 -51v-9q-3 -19 -3 -44v-8l2 -58h-17q4 -3 10 -14.5t6 -23.5v-15l1 -66l-2 -40l2 -68q0 -5 -0.5 -15t-0.5 -14v-11q0 -3 0.5 -7.5t1 -13.5t0.5 -17l2 -41v-12
q-2 -55 -6 -74q-1 -7 -10 -37l-3 -6l-5 -12l1 1q-8 -28 -16 -43h1q-11 -21 -19 -27h2l-28 -30l-30 -32q-3 0 -4 -1q-2 -1 -7 -1q-20 0 -20 22q0 13 11 31q2 3 12 31q0 1 2 6.5t3 6.5q3 6 4 10q0 7 1 11q0 1 0.5 4t0.5 4q3 26 3 55v41l1 27l5 26v4l1 19q0 22 3 54q2 14 3 30
q-6 69 -6 79v23q0 6 0.5 14t0.5 11v3q0 1 -0.5 6.5t-0.5 7.5q0 7 -0.5 23t-0.5 24l1 41l-1 18l1 23l1 30v1q0 1 -0.5 2.5t-1 4t-0.5 5.5q-2 11 -3 57q-1 10 -1 34v12v9l-5 32q-3 15 -4 19l-1 1v1l2 -2h-1l-1 1q-7 7 -18 16h1q-19 14 -19 31q0 15 4 19t50 12zM74 599v1v-1z
" />
    <glyph glyph-name="K" unicode="K" horiz-adv-x="583" 
d="M77 667q4 0 11 -0.5t9 -0.5q10 -1 22 -1q11 0 19 1h8l4 1h12l9 1h7h4q3 -1 6 -1q15 0 25 -1q19 -1 30 -6q17 -7 17 -23q0 -12 -5 -18q-7 -7 -41 -22q-7 -4 -15 -52q-1 -6 -1 -12v-3l-1 -2l3 -38v-1q0 -1 -0.5 -3t-0.5 -4t-0.5 -5t-0.5 -5t-1 -4.5t-1.5 -5t-0.5 -5.5v-11
q0 -4 6 -23q2 -20 3 -27h5q8 0 20 9l1 1l3.5 3.5t7.5 6t9 7.5l6 6l27 27q37 29 94 85q2 3 7 8q7 6 19 24q10 17 10 26v7l-18 15q-12 11 -12 25q0 24 26 24q5 0 30 -3q7 -1 23.5 -2.5t24.5 -2.5q6 -1 14 -1q9 0 16 1q3 0 9 0.5t7 0.5q47 0 47 -24q0 -17 -25 -33h1
q-12 -8 -17 -11l-15 -9l2 1l-33 -31q-13 -9 -25 -18l-20 -15t-10 -7l-4 -4l-15 -16q-6 -6 -46 -41l-21 -17l-12 -11h1q-23 -18 -51 -45h1q-7 -8 -7 -15q0 -5 3 -11q1 -2 2.5 -3.5t4 -4.5t4.5 -5l5 -5q28 -30 65 -77l32 -36v1q21 -17 77 -75l41 -44q14 -13 16 -17h-1l30 -30
q23 -17 23 -37t-25 -20q-15 0 -27 1q-3 0 -7 0.5t-9 1.5t-8 1h-4q-11 -1 -51 -3q-11 -1 -22 -1h-2q-33 1 -33 24q0 10 7 17l15 12l-1 2l-24 30q-38 38 -44 48l1 -2q0 1 -0.5 2.5t-1.5 2.5l-6 8l-19 14q-11 12 -63 62l-4 5q-5 5 -21 19l3 -1l-14 6q-2 2 -4 3q-2 2 -4 3
q-10 10 -13 10q-2 0 -2 -7v-3l1 -40q0 -4 -3 -23q0 -3 -0.5 -7t-0.5 -5q-1 -8 -1 -16q0 -4 4 -23l2 -36l3 -21l-1 2q2 -5 2 -11q2 -14 19 -25q12 -9 22 -16q8 -5 8 -17q0 -19 -21 -19q-7 0 -14 1h-24q-6 1 -11 1l-19 -1h-9q-15 0 -61 -2h-4q-10 -1 -24 -1q-22 0 -22 21
q0 16 28 28q20 6 20 59v3q0 3 -0.5 8.5t-1 16.5t-0.5 21q0 8 2 26q1 8 1 19t-1 28l-2 72v68v-1q-1 13 -1 27q0 20 1 35v27v20q0 29 -9 93q0 21 -1 25q-5 3 -31 25q-13 10 -13 25q0 22 29 22h7z" />
    <glyph glyph-name="L" unicode="L" horiz-adv-x="433" 
d="M81 666l64 -2q13 1 52 3l27 1h4q28 0 28 -24q0 -13 -12 -19h1l-10 -6l-11 -14q-4 -5 -6 -6.5t-2 -0.5q-19 -53 -19 -121q0 -43 3 -88l-1 -43v-93q0 -5 -3 -26v-15q0 -13 2 -25q2 -22 3 -28q1 -19 2 -27q0 -9 -4 -28v-6q0 -36 36 -36q7 0 31 4q20 0 41 1h-1l10 1h25
q4 0 21 20v-1q26 31 29 38q23 45 36 45q18 0 18 -20v-4l-2 -41l2 -33v-12l1 -17q0 -30 -22 -41q-8 -2 -38 -2h-24l-63 2h-3q-2 -1 -4 -1q-8 0 -14 -1h-9q-16 -2 -25 -2q-22 0 -54 4q-12 2 -20 2q-13 0 -49 -2h-6l-10 -2q-2 0 -5.5 -1t-10.5 -2.5t-12 -2.5l1 1q-6 -2 -10 -2
q-34 0 -34 23q0 13 10 26q12 9 20 16q22 20 25 59q4 21 4 80v43v50v3q0 33 4 61q1 1 1 8h19l-3 3q-2 3 -5 8.5t-6 12.5t-5.5 15t-2.5 15v101l-2 24v-1v20q0 2 -0.5 7.5t-0.5 8.5q-4 5 -12 19h1l-10 17l1 -2l-8 4q-1 0 -8.5 3.5t-11.5 5.5q-9 4 -9 19q0 20 24 22l-2 -1
q6 2 14 2q1 0 4.5 0.5t5.5 0.5z" />
    <glyph glyph-name="M" unicode="M" horiz-adv-x="752" 
d="M162 186v-45q0 -17 13 -57q6 -16 39 -38q23 -19 23 -32q0 -21 -34 -21q-13 0 -23 1q-2 0 -8 0.5t-8 0.5q-20 0 -42 1q-64 1 -74 4q-20 9 -20 26q0 8 4 14t25 17q34 17 40 84v19q0 38 3 120l6 111q0 18 -8 64l1 -1q-2 6 -2 53q0 6 -0.5 22t-0.5 27q-2 27 -8 34
q-1 3 -36 24q-22 14 -22 32q0 22 20 25q6 0 17 1h25q1 0 6.5 -0.5t10.5 -0.5q3 0 9.5 -0.5t10.5 -0.5q7 -1 11 -1q17 0 52 4h-1q5 1 14 1q22 0 30 -23q1 -7 4 -25q2 -39 10 -75q14 -58 64 -160q0 -4 1 -5q1 -2 6 -17q0 -2 1 -4t1 -4q5 -17 12 -31q1 -2 2.5 -7t4.5 -14t5 -16
q0 1 3 -3t9 -13.5t14 -23.5q13 -24 15 -32h-1l2 -5q6 0 19 22q2 3 5 8q13 17 39 83l6 14l9 23l17 44v-1l25 70h-1l15 48l16 37q10 26 21 59l3 9q2 8 5 13v-1q5 15 24 24q9 3 54 3q12 0 26 -2h2l30 1h2q11 0 24 -15q7 -9 7 -17q0 -17 -13 -20l2 1l-19 -8q-12 -5 -24 -31
q-3 -6 -5 -34q-3 -32 -4 -79q0 -38 1 -59q2 -26 2 -29v-10q0 -74 -1 -86v-43l1 -77q0 -2 -0.5 -8t-0.5 -10v-17q0 -4 7 -31q10 -35 12 -36l23 -13q12 -9 12 -25q0 -25 -21 -25h-3l-20 2h-49q-8 -1 -15 -1l-61 1q-2 0 -9.5 -0.5t-11.5 -0.5h-21q-29 0 -29 19q0 14 17 26
q3 2 11 8q32 22 40 37q3 5 5 17v10q0 22 3 71l1 17l1 15v-1q0 1 0.5 5t0.5 7q0 11 1 16q1 8 2 10q-1 4 -3 20l-1 37q0 19 -3 42l-2 18v3q0 6 2 26v4q3 28 3 40v1l-4 -12q-6 -13 -9 -21q-7 -22 -12 -29l-13 -17q-5 -4 -18 -48q-19 -40 -24 -51l1 2q-3 -13 -22 -80
q0 -1 -2.5 -5.5t-7.5 -14t-10 -18.5v1q-3 -6 -19 -56l-19 -39v1q-3 -9 -15 -38q-3 -4 -4 -8q-8 -10 -17 -10q-12 0 -22 17q-6 9 -16 51h1q-1 2 -31 72q-11 31 -29 69q-20 36 -29 51q-18 31 -31 83v-1q-11 37 -41 91l1 -1q-1 1 -2 3l-1 2q-4 3 -4 7q-1 2 -2 5q-1 1 -1 2
l2 -43l-5 -43v1l-1 -36q1 -14 1 -30q0 -1 -0.5 -5t-1 -11.5t-0.5 -13.5q-1 -7 -1.5 -22.5t-0.5 -23.5q0 -4 0.5 -11.5t1.5 -10.5z" />
    <glyph glyph-name="N" unicode="N" horiz-adv-x="650" 
d="M100 474v24q0 29 -4 45q-7 31 -14 40q-1 1 -38 23h1q-22 10 -22 30q0 27 23 27l26 -1l-2 -1q7 2 26 4h7q1 0 43 2l62 3q37 0 37 -29q0 -5 -2 -11l1 1q-3 -18 -3 -24q0 -23 57 -108l10 -15q1 -1 3 -5t4.5 -7.5t4.5 -7.5q31 -50 73 -105q17 -20 53 -60q2 -2 4.5 -5t3.5 -4
l8 -9v1q8 -15 16 -19l23 -11q2 2 6 13q2 10 7 57l4 51l-1 50q0 6 2 26v5l1 1l-3 27l-1 13v-1q-6 32 -9 72q-4 23 -47 50q-15 9 -15 24q0 5 7.5 15.5t13.5 10.5l56 -6l7 2q18 6 24 6h29q21 0 36 -3q18 -7 18 -23q0 -14 -11 -20l-19 -11q-23 -14 -24 -34q-1 -12 -3 -62
q0 -22 -2 -32v-3q0 -2 0.5 -5.5t1 -9.5t0.5 -11q0 -24 1 -50v-27q-4 -32 -4 -46v-74q-4 -29 -4 -38q0 -7 4 -42v-56q1 -22 1 -41q0 -12 1 -16q0 -4 0.5 -9.5t0.5 -7.5q0 -3 0.5 -6t0.5 -4q0 -41 -32 -41q-14 0 -18 9l-27 43l-3 3q-4 4 -6 7q-35 35 -37 39h1q-11 18 -22 33
q-6 5 -34 40h1l-10 10l-16 22l-20 24l-18 25l-20 25q-4 5 -14 17q-10 13 -14 18q-5 6 -12 15q-3 4 -6.5 9.5t-9 13t-9.5 12.5q-18 25 -24 36l1 -1q-2 3 -15.5 21.5t-24.5 33.5l-29 40q0 -1 -0.5 -2.5t-0.5 -2.5v-55l-1 -45q-1 -63 -4 -126q-3 -36 -3 -44q0 -10 3 -29
q0 -12 1 -21q0 -2 0.5 -7t0.5 -7l1 -14q1 -27 3 -40v1q6 -41 51 -48q23 -4 23 -31q0 -21 -52 -21q-11 0 -21 1h1q-20 1 -56 1q-15 0 -24 -1h-7q-14 0 -34 5q-22 7 -22 24q0 10 8 17q0 5 10 5q1 0 15 9q21 11 27 33q8 24 9 88q0 21 1 32q1 9 1 13q0 10 -1 30v10q0 14 4 45
q1 5 1 9l-1 17v20q0 3 -0.5 7t-0.5 5q0 2 -0.5 5t-0.5 4q0 10 3 31q2 6 2 26q0 1 0.5 8t0.5 12q1 7 1 19zM37 51h2h-2z" />
    <glyph glyph-name="O" unicode="O" horiz-adv-x="719" 
d="M399 686q45 0 79 -12q24 -10 57 -34q10 -8 24 -18q0 -1 1 -1q2 0 6 -4l8 -7l14 -14v1q7 -6 25 -24q4 -4 13 -19l18 -30q1 -2 3.5 -5.5t3.5 -5.5l-1 1l21 -32l-1 2q3 -4 6 -20l1 -4q1 -5 2 -8l-1 2q4 -8 7 -17t5 -15.5t3 -7.5v-2q0 -14 1 -23l3 -40q0 -6 -3 -36l2 -43v-6
q0 -7 -4 -31q-3 -13 -24 -56l-17 -33l-14 -18l-11 -12l-14 -17q-14 -17 -56 -54q-88 -56 -190 -56q-65 0 -96 10q-113 33 -171 146q-29 56 -41 94h1q-10 33 -13 55v4q0 3 -0.5 9t-1 18t-0.5 22q0 7 -2 15v5q0 36 16 85h-1q4 14 37 72q2 4 10.5 15.5t12.5 19.5h-1q3 5 15 21
q43 47 111 78q49 22 61 24l-1 -1l5 1q5 0 13 1t16 1q1 0 4 0.5t4 0.5q43 3 55 3zM373 617l-30 5q-15 -3 -31 -11q-31 -21 -35 -25q-23 -21 -44 -50q-7 -8 -23 -41l-14 -24v1l-8 -21q-5 -11 -8 -20v1q0 -1 -1 -2.5t-1.5 -3t-0.5 -3.5q-3 -12 -3 -40q0 -14 1 -25v-30l-2 -63
q0 -1 14 -63q3 -13 12 -40h-1l29 -34q10 -17 16 -23l9 -6q8 -6 17 -12q27 -22 42 -28q7 -3 40 -6q8 -1 18 -1h9q30 0 41 3h-1q13 7 24 15q5 3 45 29h-1q8 7 21 25q2 6 6 11q21 30 48 82l-1 -1q6 22 7 36q1 9 1 13v67q0 14 -1 35v-1q-1 6 -1 23q0 3 -0.5 10.5t-0.5 11.5
q-3 6 -6 19q-10 40 -32 77q-10 20 -50 63q-5 6 -11 13t-10 11l-3 5q-6 6 -28 10q-3 0 -5 1q-4 0 -10 3q-18 3 -37 4zM566 409l-1 1z" />
    <glyph glyph-name="P" unicode="P" horiz-adv-x="477" 
d="M45 666q7 0 10 -1q8 -2 9 -2q3 0 7 1q1 0 5 0.5t5 0.5q2 0 6 0.5t5 0.5h4l2 1l49 -5l5 -1q13 3 22 5q16 4 21 4l13 -1l8 1l27 -1q3 0 8.5 -0.5t8.5 -0.5q14 0 19 -1q3 -1 17 -5h-1q5 0 8 -1q77 -6 133 -119q14 -27 15 -41q3 -16 3 -30v-19q-3 -71 -51 -110
q-41 -43 -63 -48l-20 -5q-13 -2 -28 -5q-5 -1 -7 -2h-21l-32 -3l-24 1h-2q-4 0 -5 -6q-2 -3 -5 -22v-2l-2 -29l-2 -29v-4q0 -2 2 -16q3 -18 3 -26v-10l-2 -32q1 -43 38 -66q19 -13 19 -23q0 -18 -24 -18q-12 0 -19 1h-3q-3 1 -4 1q-13 1 -24 1l-33 1l-37 -4l-14 -1l-11 -1
h-10q-40 0 -40 26q0 13 13 21l-1 -1l18 12q12 8 21 49q2 12 5.5 27t3.5 18q3 29 3 77q0 8 -3 44q0 11 1 18l2 17l-1 35l-1 43q0 29 -3 64v24q0 6 0.5 15t0.5 11q0 15 -3 45q-5 44 -52 68q-21 13 -21 32q0 26 29 26zM269 603h-24l-17 1h-1q-14 0 -20 -14q-14 -21 -14 -35
q0 -8 1 -15q0 -1 0.5 -4t0.5 -4v-8q0 -11 -1 -18q-1 -13 -1 -22v-28l-2 -26q-3 -15 -3 -17q0 -3 1 -7q0 -1 0.5 -4t0.5 -4v2q0 -3 1.5 -8t1.5 -7q7 -46 21 -46q2 0 4 1l32 5q23 1 31 3l-2 -1q20 8 34 27q3 3 7 9t7 9q5 5 8 19l5 31q2 15 10 28h-2q0 2 -5 22q-2 6 -3 31v11
q0 5 -11 21l-10.5 10.5t-17.5 16.5t-20 17q-4 2 -12 4z" />
    <glyph glyph-name="Q" unicode="Q" horiz-adv-x="725" 
d="M347 688q8 0 48 -5h-1q30 0 50 -1q1 0 3 -1t5.5 -2t6.5 -2q26 -10 37 -13q5 -2 14 -4t13 -3q2 -1 19 -13q20 -20 24 -23l3 -3q3 -4 11 -12l16 -16l13 -14h-1q13 -13 31 -34q19 -25 27 -43l10 -26q27 -65 27 -103q0 -71 -7 -107l-4 -19q-2 -14 -18 -45l-6 -12v1
q-9 -22 -13 -28v1l-7 -13l-12 -18l1 1l-5 -9l-9 -9l-10 -11l-7 -4l2 2q-7 -7 -15 -14.5t-12 -12t-6 -5.5h2q9 0 40 23q13 9 29 9h14q12 -1 22 -1h3q5 1 13 1q30 0 30 -37h-19q5 -1 11.5 -7t5.5 -13q-1 -12 -7 -33q-5 -10 -24 -14q-13 -4 -30 -4h-7q-13 0 -20 1h-3l-3 1
q-4 0 -14 -2q-7 -1 -18 -1h-12q-3 0 -7 0.5t-5 0.5q-9 0 -13 -1q-25 -4 -35 -4q-17 0 -41 7l-1 1q-2 0 -21 -6q-6 -2 -7 -2q0 -1 -1 -2l-41 6l-23 -5l-27 -2l-36 -3q-31 0 -92 34h1q-1 1 -8.5 3.5t-10.5 4.5q-21 12 -49 33q-43 39 -57 63q-40 68 -51 89q-12 23 -14 50l-4 37
q-3 30 -3 49q0 29 5 62q1 3 1 6t1 6q2 6 2 11q0 8 14 37l-1 -1q10 36 18 54q18 38 69 87q15 14 27 22l23 13q10 8 56 36q42 11 90 11zM387 617h-28q-23 0 -29 -1h-3q-11 0 -56 -35q-12 -10 -20 -18q-2 -2 -6.5 -5.5t-6.5 -5.5q-15 -20 -23 -32q-1 -1 -8 -10t-11 -16l1 1
q-1 -1 -1 -3t-1 -3q-6 -16 -10 -28q-13 -37 -16 -60q-2 -11 -4 -29l-3 -18v2l-3 -75q0 -37 20 -77l10 -20q20 -41 61 -75h-1q15 -11 52 -29l22 -10q1 0 5 -1.5t11 -3.5t15 -5v1l22 -7h-2l11 -1h16q4 0 16 4q3 0 15 3q19 3 28 9h-1q68 47 74 75q31 66 36 104q6 39 6 118
q0 18 -9 56q-1 39 -38 95q-13 20 -30 39q-6 7 -35 34q-11 10 -21 13l2 -1l-15 4h1h-1l-1 1l-6 2q-7 2 -10 3q-15 5 -25 5zM445 682h-1h1z" />
    <glyph glyph-name="R" unicode="R" horiz-adv-x="482" 
d="M79 666h27q18 0 39 2l27 -3q20 -2 25 -2q6 0 9 1q21 3 32 3q20 0 53 -5q2 -1 3 -1t3.5 -0.5t3.5 -0.5q41 -4 50 -10q55 -41 70 -68h-1q11 -18 18 -41l-1 1l7 -17q9 -17 9 -46q0 -36 -18 -75q-4 -8 -25 -40q-4 -5 -37 -24q-14 -8 -17 -16l2 -1q13 -11 25 -26q6 -15 13 -44
q3 -20 12 -35q6 -18 10 -34l4 -25q3 -33 15 -56q2 -4 6 -5q4 -2 13 -4q6 0 11 -2l-2 1q28 -1 28 -30q0 -11 -9 -24q-3 -5 -34 -21q-51 -25 -68 -25q-16 0 -29 19q0 6 -8 29q-6 18 -10 29l-6 17l1 -2q-2 5 -3 15q-1 5 -3 19l-9 37l-8 49l-5 23v-1q-10 36 -17 47t-31 27v-1
q-16 9 -37 9q-7 0 -14 -7t-7 -14l1 -35q0 -3 -1 -6q0 -1 -0.5 -6.5t-0.5 -8.5q-2 -19 -3 -42l-3 -32q2 -38 12 -84l-1 2q4 -10 14 -14q42 -20 42 -39t-19 -22q-4 -1 -18 -1q-1 0 -6.5 -0.5t-8.5 -0.5l-31 1h-20l-18 3l-16 2q-3 0 -20 -5h-35q-25 0 -25 27q0 14 14 25
q18 15 23 21q16 23 17 27q3 10 3 25l1 85q0 13 1 33t1 23v3q0 9 -1 22q-1 17 -1 56l1 39q0 10 3.5 22.5t7.5 20t5 8.5h-18v46l-1 8q0 4 -0.5 11.5t-0.5 10.5q0 13 -1 17q0 7 -7 38q-2 15 -4 21l1 -1q0 1 -1.5 5t-2.5 6l1 -2q-1 7 -15 16v-1q-19 13 -19 25q0 14 7 21
q8 8 26 8zM226 363h32q9 0 26 11q31 20 42 35q10 16 14 36q1 5 1.5 9.5t1.5 7.5q2 6 2 8q0 8 -5 35q-4 17 -5 21q-4 23 -30 46q-11 15 -23 27q-14 10 -29 10v17q-6 -18 -16 -19l-25 -5q-7 -5 -14 -33v1l-1 -4q-1 -3 -2 -7t-2 -7t-1.5 -6t-0.5 -4v-1l2 -27v-38h-19
q5 -1 12 -7t8 -14v-14q0 -27 -1 -34v-2q0 -8 2 -24v1q3 -17 4 -19h27z" />
    <glyph glyph-name="S" unicode="S" horiz-adv-x="500" 
d="M65 225q13 0 19 -14l19 -55v1l5 -10q1 -3 12 -23l-1 1q2 -2 4 -8q8 -8 13 -11q1 -1 4 -3.5t5 -4.5l19 -17q12 -11 29 -22q3 -2 5.5 -4t4.5 -3.5t3.5 -2.5t2.5 -1l1 -1q18 -7 19 -7l28 4q30 1 42 6t25 19q17 17 23 26q3 4 7 11l3 6q2 4 5 7.5t3 4.5q8 22 8 33
q0 83 -91 113l-28 14l1 -1l-67 18l-19 11h1q-3 2 -17 10t-24 14h1l-8 4l-5 5t-11 11.5t-13 14.5q-26 30 -33 46q-6 14 -9 25l-1 18q-1 13 -1 30q0 4 -1 9v5q0 23 13 52q8 20 25 41q9 14 53 48l19 13l15 8q41 21 81 21q52 0 63 -1q21 -1 71 -20q12 -2 32 -17q14 -17 22 -53
q12 -48 12 -62v-9l3 -20q0 -21 -19 -21q-14 0 -25 11q-5 5 -17 37v-1q-6 10 -18 22l-23 16l-12 10l-9 7q-27 28 -33 33q-9 6 -24 6q-3 0 -26 -3q-34 -5 -35 -6q-12 -4 -22 -18q-23 -26 -27 -32l1 1q-9 -18 -11 -26q-3 -15 -3 -21q0 -16 12 -47q9 -22 47 -42q6 -4 35 -11
l13 -2q5 -1 11.5 -3.5t10.5 -4t7 -1.5h1q1 0 3 -0.5t3 -0.5q14 -4 36 -18h-1q16 -7 30 -14q14 -9 28 -20q41 -35 53 -56l17 -34q1 -1 2 -4t2.5 -5.5t2.5 -4.5t3.5 -6.5t3.5 -6.5q5 -37 5 -65l1 -22v-3q0 -41 -36 -83v1q-15 -16 -41 -41q-6 -6 -35 -23q-28 -16 -38 -18
q-15 -4 -34 -4h-7l-55 2h-24l-18 1l-31 8l-65 13q-43 13 -47 44l-4 25q-4 23 -5 47q0 14 -1 30q-1 7 -1 14q0 60 27 60z" />
    <glyph glyph-name="T" unicode="T" horiz-adv-x="497" 
d="M307 162v-56q0 -50 42 -60q4 -1 11.5 -13.5t7.5 -15.5q0 -22 -30 -22h-15q-41 2 -62 5q-5 0 -24 -4q-12 -2 -21 -2q-6 0 -34 3q-3 1 -6 1q-2 0 -12 -2q-8 -2 -14 -2q-20 0 -20 19q0 14 15 26q2 1 6.5 3t5.5 2h-1q31 14 38 34q7 18 10 66v45l-2 68v11l1 48l1 20q0 22 1 36
q1 15 1 23q0 3 -1 10v-1q-1 4 -1 27q0 3 -0.5 12t-0.5 14v17l1 55q0 5 -4 20l-3 13l-3 11h-14q-10 0 -20 3q-11 5 -17 5q-24 0 -39 -12q-9 -7 -17 -19v1q-1 -4 -13 -38q-9 -23 -32 -23q-19 0 -19 23l1 80q0 -1 -1 0q-3 20 -5 41q-3 20 -3 23q5 14 22 14q4 0 8 -2h-3h5
q47 -11 69 -11q6 1 11 2q2 0 9 1t13 2q42 0 72 4q2 0 5 0.5t4 0.5h-2q5 1 11 1v-9l1 9q6 -1 19 -3h-1l59 -8q20 -2 25 -2h8q3 0 11 1h-1q9 2 33 4h7q29 3 36 4q6 0 11 2l6 2q4 1 7 2q15 5 26 5q26 0 26 -22q0 -5 -8 -26l-4 -10q-8 -19 -14 -51q-5 -33 -17 -59
q-7 -12 -24 -12q-22 0 -23 31q-1 26 -15 38v-1q-7 4 -29 6q-4 0 -10 3l1 -1q-19 3 -25 5q-3 1 -5 1q-7 0 -14 -4q-1 0 -11 -16q-10 -17 -10 -21v-2l1 -28v1l3 -23v-13l1 -19q0 -29 -1 -43q-1 -15 -18 -18h16v-87l1 -32q0 -5 -1 -10v1q-4 -29 -4 -50z" />
    <glyph glyph-name="U" unicode="U" horiz-adv-x="677" 
d="M475 612l1 -2q-17 13 -19 14q-20 12 -20 24q0 20 35 20q15 0 43 -4q12 -2 27 -2q1 0 3.5 0.5t4.5 0.5q7 1 21 1h42l27 1h3q24 0 24 -23q0 -15 -28 -42l-10 -5q-13 -5 -14 -6l2 1q-6 -6 -16 -29q-5 -12 -5 -28q0 -5 1 -15q1 -11 1 -32l2 -92l-2 -22v-19l-2 -26v1l-1 -65
q0 -4 3 -37q1 -6 1 -13q0 -17 -6 -46q-4 -15 -4 -17l-1 -2v-3l-4 -20l-3 -8v1q0 -1 -1.5 -5.5l-2.5 -7.5v1q-13 -35 -27 -51q-47 -53 -87 -62l-3 -1h-3q-12 -3 -19 -4l1 1q-14 -3 -45 -4q-28 -3 -41 -3q-41 0 -68 8q-78 23 -90 30h1q-22 10 -48 43q-5 5 -10 13v-1
q-19 20 -26 41q-12 36 -12 76v7l1 26l-2 33v-1l-4 22q0 23 -1 37q0 7 -0.5 19.5t-0.5 15.5q0 57 8 86v-3l1 1v2v5l-7 54l1 4v5q0 1 0.5 5t0.5 7v14q0 66 -30 81q-20 9 -24 16q-5 4 -5 12q0 24 33 24l23 1h13q4 -1 6 -1q13 0 28 1h30q19 0 27 1h-1q6 1 33 1l37 1q37 0 37 -29
q0 -11 -7 -21q-8 -8 -30 -14v1q-32 -10 -44 -35q-7 -18 -7 -41q-1 -9 -1 -26t1 -26l2 -21q0 -3 0.5 -8.5t0.5 -7.5q0 -8 1 -12v-5q-1 -5 -1 -8q0 -2 -0.5 -9t-0.5 -11v-12q-1 -4 -1.5 -11.5t-0.5 -11.5q-2 -12 -2 -14t0.5 -6t1 -12.5t0.5 -15.5q2 -15 3 -36v-31l-1 -18
q-1 -10 -1 -29q0 -38 9 -54q5 -10 12 -22.5t10.5 -19t5.5 -10.5v1q3 -4 25 -16h-1q5 -2 29 -19q6 -5 11 -5q7 0 37 6l-2 -1q4 2 9 2l47 -2q16 2 45 14h-1q34 21 37 26q1 1 14 22q1 1 3.5 5.5t3.5 7.5q18 33 19 36v-1q0 10 3 46l4 53v-1l4 89l-2 24l-1 53v6l1 22q-1 1 -1 2
q-1 7 -3 25q0 6 -6 18q-6 15 -10 55q-1 7 1 8h-1l-24 18q-2 2 -20 26z" />
    <glyph glyph-name="V" unicode="V" horiz-adv-x="574" 
d="M39 673l29 -2q6 0 13.5 -0.5t17 -1.5t14.5 -1q14 -1 22 -1q11 0 43 4l15 -2q11 2 23 2q43 0 43 -25q0 -11 -21 -26q-37 -28 -37 -38l1 -14q0 -32 3 -46l-1 2q11 -29 12 -33h-1l14 -44v1l17 -34l6 -23l-1 1q22 -48 25 -61q1 -5 6 -38l9 -24l14 -33l10 -24q8 -21 8 -22
q0 1 10 26v-1l5 15l-1 -2q4 13 11 29l-1 -1l9 32q1 4 2.5 8t3 9.5t2.5 9.5l14 45v-1l3.5 7l7.5 15l9 18v-2l10 29l14 29v-1l6 23l13 29l-1 -2l5 25l5 19q8 32 8 36q0 7 -23 24q-28 22 -28 42q0 21 24 21q14 0 19 -1h-1q43 -6 51 -6q2 0 6 1q38 5 54 5q28 0 28 -30
q0 -12 -6 -21q-3 -3 -24 -12q-8 -3 -20 -22q0 -2 -13 -33v1q-5 -15 -8 -20l-23 -49v1l-18 -55q-18 -37 -27 -69h1q-10 -29 -23 -60l-10 -26q-12 -28 -24 -58q-5 -18 -15 -40l-17 -45v1l-16 -45q-18 -57 -33 -87q-9 -16 -25 -16q-11 0 -18 10q-5 9 -10 32h1l-3 9
q-8 31 -26 68l-5 18l-8 26l-6 23l-18 59q-8 40 -10 45q-3 10 -26 62q-5 11 -17 39q-1 8 -5 19v-1q0 1 -2 4.5t-2 4.5q-14 53 -39 111q-1 2 -7.5 13.5t-12.5 23.5q-2 5 -8 14q-2 3 -8 14t-11 19v-1q-7 7 -19 17q-1 1 -4 3t-4 3v-1q-13 13 -13 26q0 27 33 28z" />
    <glyph glyph-name="W" unicode="W" horiz-adv-x="799" 
d="M413 669q19 0 24 -19q1 1 3 5q7 16 24 16h10q3 0 8 -0.5t7 -0.5h24q20 1 51 1q36 0 36 -31q0 -13 -10 -23q-9 -9 -25 -20q-14 -9 -39 -53q-1 -1 -4.5 -6.5t-5.5 -9.5l-2.5 -5t-2.5 -4q-5 -16 -12 -47q-2 -7 -6 -15q-1 -2 -3 -7t-4 -8q-2 -6 -2 -8t3 -15q2 -4 4 -11.5
t3 -10.5q10 -30 12 -38q0 -1 5 -20t8 -29q2 -10 4 -15v1q10 -19 25 -66l2 -11q7 -37 9 -37q3 7 8 22q14 39 22 71l11 39v-2v3l1 2q4 16 16 52q9 21 16 36l1 4q2 4 4 11t5 15q2 6 6 20l8 26v-1l6 25l8 42q0 11 -11 29q-1 2 -3.5 5t-4.5 6l-7 14q-4 6 -6 11l-13 9q-7 8 -7 21
q0 10 8.5 20t17.5 10h2q54 -6 63 -6q39 0 42 1h24q38 0 38 -30q0 -12 -11 -20l-24 -15h1q-17 -12 -29 -42v1q0 -1 -1.5 -3.5t-2 -5t-0.5 -3.5q-15 -33 -24 -54l1 1q-2 -7 -10.5 -34.5t-14.5 -49.5q-2 -7 -19 -55h1q-21 -64 -48 -140h1q-3 -11 -16.5 -54.5t-22.5 -76.5
q-8 -34 -11 -54v1q-6 -49 -35 -49q-14 0 -22 11q-9 21 -15 37l-11 34l-12 35v-2l-16 30l-6 18l-11 21l-9 32l1 -1q-19 46 -24 67q-3 8 -3 11q0 -1 -1 -3l-2.5 -5t-2.5 -6q-8 -21 -14 -37l-13 -32l1 1l-20 -74q-34 -85 -36 -98q-8 -35 -27 -35q-6 0 -19.5 14.5t-15.5 21.5v-1
l-8 26l1 -1l-9 24l-20 59v-1l-25 60l-11 34h1l-10 22l-14 45l1 -1l-17 40l-20 61v-1l-20 50l-7 25q-6 25 -16 52l-6 12q-21 45 -34 63q-15 12 -25 16q-26 14 -26 38q0 27 30 27q14 0 68 -2q9 -1 18 -1t16 1l13 1q67 0 72 -4h-1q20 -9 20 -37q0 -15 -6 -21l-16 -18l1 1
q-12 -15 -12 -50q0 -37 12 -75q4 -19 43 -104l14 -46h-1l23 -63l7 -31h-1q11 -33 15 -40v1q1 -3 3 -3q5 0 15 37q8 21 10 24q6 8 17 45q20 51 20 62q0 24 -36 95q-10 19 -22 61q-2 8 -16 44q-15 36 -25 53h1q-2 2 -22 12h1q-12 6 -12 27q0 30 31 30h3l67 -3h57zM446 609
q-8 2 -11 6q-2 -3 -5 -5l2 1l-20 -13q-1 -1 -1 -4q0 -8 18 -59q7 -13 17 -13q4 0 8 4l-1 -1q0 2 1 5q10 24 11 37v5q1 7 1 17t-5 15zM619 376q-2 -4 -2 -7q0 7 2 7zM512 522v-1q-1 -1 -1 -2z" />
    <glyph glyph-name="X" unicode="X" horiz-adv-x="549" 
d="M164 -1h-14q-20 0 -33 4q-12 4 -15 4q-5 0 -23 -2t-20 -2l-12 -1q-1 0 -6 -0.5t-7 -0.5h-3q-28 0 -28 27q0 10 9 21q2 3 32 16l12 8q2 2 6.5 8.5t9.5 13t11 14.5l20 25q3 3 21 27q3 9 19 35l-1 -4q0 3 7 12q0 1 7 10.5t12 17.5l-1 -1q9 19 11 21q3 5 5 9q0 1 6 11l19 27
v-1q7 13 7 32q0 4 -4 16v-1q-1 3 -15 20q-6 7 -8 16l-13 37q-6 15 -20 32l-21 39l-12 24q-4 6 -11 19.5t-11 20.5q-2 6 -5 14l-2 6l3 -1q-5 3 -8 4q-1 1 -4.5 2.5t-7 3.5t-6.5 3h1q-10 5 -21 20l-8 9l-11 11q-5 12 -5 17q0 23 32 23h5q6 0 12 1q20 1 47 1q8 0 21 -1l23 -2
l16 -2q22 -3 60 -5q19 0 19 -35q0 -11 -6 -20l-6 -6q-11 -13 -17 -18q-7 -6 -7 -23q0 -7 4 -21l1 -2q1 -1 3 -5t5.5 -10t7.5 -14.5t9 -18.5l8 -23v2q14 -27 19 -32t14 -5q5 0 13 8q0 2 4 6l5 5q4 3 36 49l10 13l-1 -2q6 11 18 27q21 26 22 29q4 11 4 23q0 13 -8 20h1
q-1 1 -21 4q-19 3 -19 25q0 26 24 26h2l36 -1q2 1 8 1q1 0 2 1q21 4 40 4h2q1 -1 3 -1q1 0 4.5 -0.5t6.5 -0.5q28 0 41 -1q36 -1 36 -29q0 -14 -17 -23q-1 -1 -23 -10q-37 -11 -97 -105h1q-4 -6 -27 -40q-7 -7 -14 -19q-1 -2 -2.5 -4t-2.5 -4q-2 -3 -7 -8.5t-7 -7.5
q-10 -12 -16 -18q-17 -20 -17 -29q0 -7 4 -15l22 -46h-1q10 -15 26 -64q2 -3 4.5 -7t6.5 -10t8 -11h-1l25 -40l9 -16q1 -2 6.5 -12.5t10.5 -19.5q5 -10 24 -25q9 -7 38 -36q27 -25 27 -37q0 -24 -24 -24l-20 1l-13 -1h-51l-29 2q-2 0 -4 -1h-9q-11 0 -44 6q-2 1 -6 1
q-6 0 -12 2l2 -1q-33 2 -33 25q0 11 8 19q3 3 26 20q6 4 6 13q0 10 -1 18v-1q-4 19 -12 31l-18 30v-1q-6 10 -9 18q-8 26 -17 37l-24 36l-1 1q-10 -7 -20 -21l-8 -11l-12 -17l-6 -8l1 1q-18 -34 -42 -67q-13 -16 -13 -31q0 -22 22 -47q22 -27 22 -37q0 -15 -16 -18l1 1
q-5 -2 -25 -2z" />
    <glyph glyph-name="Y" unicode="Y" horiz-adv-x="547" 
d="M297 0q-2 0 -5 -1q-2 0 -6 -0.5t-5 -0.5q-8 -1 -18 -1q-8 0 -13 1h1q-10 1 -16 1l-14 -1h-26q-28 0 -28 19q0 15 13 21l21 10h-1q5 2 26 34q14 15 14 25v4q-1 9 -1 17l3 58q0 16 3 44q0 3 1 7l-4 51q-2 18 -3 37l-2 3q-2 3 -8 13.5t-12 20.5q-3 6 -11 19.5t-12 21.5
q-6 10 -9 16q-12 16 -20 26q-17 20 -26 38q-5 9 -18 32l1 -2q-1 1 -2.5 3l-1.5 2q-23 37 -27 41l-20 19l-17 19v-1l-14 13h2q-27 17 -29 19q-7 7 -7 17q0 7 7 14q3 4 44 6q29 3 33 3q7 0 30 -4h-2q9 0 16 1q14 2 20 2l3 -1h6q2 0 7 -0.5t8 -0.5q2 -1 20 -1q38 0 38 -25
q0 -10 -10 -19l-15 -17q-5 -7 -5 -14q0 -14 29 -56q17 -28 22 -33l18 -18q9 -9 18 -27h-1l15 -24l9 -19q21 0 62 83q7 18 11 25l25 32q10 10 10 21q0 10 -8 23q-3 1 -4 4q-4 3 -7 9l-1 1q-2 2 -7.5 5.5t-8.5 5.5h1q-8 5 -8 18q0 25 38 25h10q3 0 8 -0.5t7 -0.5q7 -1 14 -1h2
q2 1 6.5 1.5t9.5 1.5t15 1t39 -4q36 -6 36 -27v-2q0 -11 -6 -16.5t-37 -22.5q-14 -8 -31 -29l-2 -3q-3 -4 -20 -21q-4 -5 -22 -41l-14 -21v1l-11 -18l-7 -9l-5 -7l-9 -15l-28 -42q-11 -12 -19 -28v1q-4 -13 -4 -40v-74q-3 -26 -3 -27v-1q1 -2 1.5 -4.5t0.5 -4.5q1 -6 1 -19
v-3l-1 -44l-1 -30v-6q0 -21 6 -33q7 -14 27 -31h-1q21 -16 21 -30q0 -17 -16 -17h-2l-19 1q-5 -1 -22 -1z" />
    <glyph glyph-name="Z" unicode="Z" horiz-adv-x="478" 
d="M207 604q-42 0 -82 -21q-11 -6 -17 -21q-5 -10 -10 -27q-8 -18 -23 -18q-9 0 -15.5 7t-6.5 14v3l2 18l-1 23q0 3 2 19q0 3 1 10t1 8v1q-1 7 -1 21q0 2 -1 5v3q0 23 21 23q5 0 30 -6q6 -2 8 -2q2 1 5 1q2 0 12.5 1t18.5 2h-1q4 2 12 2q3 0 19 -2q1 0 3.5 -0.5t5.5 -1.5
t5 -1q16 -4 33 -4q7 0 38 4l62 2q4 0 8 -1q3 0 8 -0.5t7 -0.5q8 -1 17 -1q1 0 4 0.5t6 0.5q14 0 24 1h18q41 0 41 -30q0 -17 -32 -70q-25 -41 -30 -53q-6 -15 -7 -17q-18 -36 -48 -107q-6 -11 -14 -28v1l-14 -28l-14 -24v1l-12 -30q-2 -6 -6 -15l-15 -30q-4 -9 -24 -35
l-8 -15v1l-6 -12l-26 -61l-5 -10q-4 -9 -4 -19q0 -13 4 -17v1q7 -9 90 -9q36 0 67 11q12 5 14 8q1 1 3 4l-1 -1l7 11q4 6 16 18l5 5q3 8 4 25q4 22 26 22q25 0 25 -31v-7q0 -3 -0.5 -7.5t-0.5 -6.5v-22l-2 -19v-6q-3 -37 -4 -48q-4 -16 -15 -16l-25 2h-1q-4 0 -14 -2
q-5 -1 -13 -1q-15 0 -18 -1q-8 0 -17 -1q-1 0 -5 0.5t-7 0.5q-1 0 -6 0.5t-8 0.5q-9 1 -57 1q-12 0 -47 -4h-16l-12 -1q-3 2 -23 3l-12 3q-14 5 -51 5q-8 0 -28 -4h-5q-3 -2 -9 -2q-28 0 -28 26q0 25 16 48l-1 -1q24 40 44 80q6 9 27 44v-1l4 10l13 19l-1 -1l5 12q1 1 3 4
l1 1q3 4 8 15t8 15q0 7 3 8q1 2 2.5 4t2.5 3l1 2q12 16 15 29q8 11 42 97l18 38q4 4 18 26v2l16 24h-1q13 23 27 54q9 13 9 25q0 13 -5 14q-4 2 -12 2q-1 0 -5 0.5t-7 0.5l-36 2h-22l-14 2h-4zM262 481l-1 -1z" />
    <glyph glyph-name="bracketleft" unicode="[" horiz-adv-x="270" 
d="M124 690h3q3 -1 5 -1t7 -0.5t9 -0.5l17 1q13 -3 15 -3q3 0 20 4l22 1l2 1h4h-1q5 1 14 1q29 0 30 -28v-4q0 -23 -18 -23l-24 1v-1q-9 0 -15 -1q-1 0 -5 -0.5t-6 -0.5q-17 -2 -27 -43v1q-8 -35 -8 -61q0 -2 0.5 -8t1 -17t0.5 -23l-3 -55l1 -50v-35q-1 -16 -1 -28
q0 -7 2 -31v-4l-3 -38v-4l3 -41v-9q-4 -38 -4 -42q2 -19 3 -39v-24q4 -28 5 -43q5 -44 17 -53q8 -6 11 -6h20q40 -1 40 -30q0 -21 -19 -21h-3l-20 2l-19 -4q-6 0 -10 2l1 -1q-12 4 -22 4q-8 0 -16 -1q-2 0 -7 -0.5t-8 -0.5q-8 -1 -25 -1q-27 0 -37 14q-9 14 -9 41q0 29 3 50
q5 37 5 50h17q-1 0 -5.5 6t-9.5 17t-5 20v3q3 25 3 31q0 3 -3 36q-1 7 -1 17q0 15 3 44q1 6 1 11l-2 76v-2q0 3 -0.5 8.5t-1.5 7.5q-3 22 -3 29q0 9 4 40q1 5 1 24q0 23 -1 41l-1 28v-2q-1 4 -1 14q0 2 -0.5 5.5t-0.5 5.5v12q0 19 10 72q1 2 1 13q0 2 0.5 7.5t0.5 8.5
q0 30 43 30z" />
    <glyph glyph-name="backslash" unicode="\" horiz-adv-x="407" 
d="M46 699q13 0 24 -8q9 -9 20 -33q0 -1 1 -2q8 -16 16 -33q-2 7 2 -1q11 -21 12 -22l-1 1q1 -1 2.5 -5t2.5 -5q6 -11 19 -53l-1 1l19 -40l6 -19q26 -43 30 -50q6 -10 30 -64q6 -15 15 -29l11 -33l15 -22v-2q1 -1 17 -28q1 -2 23 -52l26 -49l11 -32v1q10 -19 23 -37l10 -25
v1l6 -13q5 -11 10 -19l8 -15q8 -11 8 -20q0 -21 -29 -21q-19 0 -26 7q-4 3 -21 42q-4 8 -27 39l-7 12l-7 22q-15 21 -18 30l-5 13q-1 2 -4 12t-5 16l1 -2l-14 14l-11 20l-4 7l-7 14q0 1 -1.5 6t-3 11l-2.5 10q-12 19 -15 26q-8 14 -26 60v1q-5 10 -7 13q-13 21 -32 63
q-23 46 -49 91h1q-7 14 -19 50l1 -1q-7 16 -18 37q-4 9 -21 44q-19 38 -19 46q0 25 30 25z" />
    <glyph glyph-name="bracketright" unicode="]" horiz-adv-x="270" 
d="M45 -15q3 0 7 -1l4 -1h1h-1l15 2q19 2 20 3q13 7 17 26q11 33 11 61q0 4 -1 7q-1 13 -1 39q0 18 4 46v-1q0 1 1 4v3q1 4 1 7q0 10 -3 32q-1 10 -1 27t1 29v-1q0 2 0.5 8.5t0.5 9.5q1 10 1 18q0 13 -1 22q0 2 -0.5 6.5t-0.5 6.5q0 3 -0.5 7.5t-0.5 6.5q-1 9 -1 21l-1 48
q7 38 7 49q-2 20 -2 38l-1 37v-2l-4 21v32q0 6 -7 28v-1q-3 5 -16 12q-6 3 -8 3h-15q-44 2 -44 30q0 23 19 23h3l18 -2q15 4 21 4q5 0 24 -4q5 -1 10 -1h5q24 3 27 3q33 0 41 -2q26 -12 26 -53q0 -27 -1 -43q-5 -92 -5 -112v-24q0 -5 4 -40l-1 1q1 -6 1 -21v-25v1l-3 -41
q0 -16 1 -26q0 -2 0.5 -4.5t0.5 -3.5l2 -35q-2 -60 -4 -70q0 -13 -1 -30l-1 -12l2 -21l-1 -15l2 -34v-52l-3 -13q-3 -13 -6 -34q0 -26 -5 -33h1q-7 -10 -27 -15l1 1q-4 -2 -10 -2l-2 -1h-3q-5 0 -27 2q-3 0 -10.5 1t-12.5 1.5t-7 0.5l-19 -5l-43 -2h-3q-24 0 -24 26
q0 29 28 29z" />
    <glyph glyph-name="asciicircum" unicode="^" horiz-adv-x="482" 
d="M533 273h-58l-192 291l-197 -291h-117l279 414h15z" />
    <glyph glyph-name="underscore" unicode="_" horiz-adv-x="481" 
d="M0 -45h500v-42h-500v42z" />
    <glyph glyph-name="grave" unicode="`" horiz-adv-x="437" 
d="M168 453q10 0 21 -7l-1 1q2 -1 38 -37q2 -3 7 -6q2 -2 6.5 -5.5t6.5 -4.5q19 -16 19 -30q0 -17 -17 -17q-4 0 -35 12l1 -1l-36 10l-8 3q-6 3 -8 3h1q-2 0 -25 9q-13 7 -13 25q0 17 13.5 31t29.5 14z" />
    <glyph glyph-name="a" unicode="a" 
d="M161 304h-10l-12 -2l-3 -4l-2 -4q-3 -3 -5 -4q-9 -9 -19 -16q-15 -11 -24 -11q-26 0 -26 31q0 28 22 46l-1 -1q5 5 34 16l-1 -1l11 6q15 8 29 8q39 0 53 -6q26 -10 50 -47q12 -18 12 -44v-6q0 -2 -0.5 -6t-0.5 -5l-1 -123q0 -15 1 -26q3 -12 15 -25q5 -6 6 -6l19 -8
q5 -5 5 -12q0 -10 -17 -30q-23 -32 -50 -32q-11 0 -23 6l-13 10l-2 1q-2 1 -2 2q-2 2 -4 3l-3 2q1 -1 -4 -3h1q-42 -21 -75 -21q-44 0 -79 35q-10 10 -12 26q-1 3 -1 7l-1 2v2q-1 4 -1.5 8t-1 6t-0.5 3q0 4 2 9v12q0 1 0.5 6t0.5 8q1 18 13 36q21 28 67 52l6 2q27 12 31 13
q18 6 33 19q11 14 11 23q0 3 -14 29l1 -1q-12 13 -15 15zM192 186q0 5 -1 7q-7 -2 -19 -14q-3 -1 -9 -7q-24 -19 -26 -22q-23 -29 -23 -52q0 -14 10 -22q18 -14 39 -14t25 40q0 7 1 13v-1q0 2 1 8t1.5 12t1.5 12q1 7 1 12l-1 19q0 1 -0.5 4t-0.5 5z" />
    <glyph glyph-name="b" unicode="b" horiz-adv-x="401" 
d="M69 151q0 21 3 84q1 7 1 16q0 16 -3 58q-1 11 -1 25q0 8 2 36q1 13 1 32q0 40 -4 68q-1 7 -2 16.5t-1 11.5v4q-3 26 -5 32l1 -1q-5 15 -4 16h-4q-4 2 -6 4q-3 0 -9 3q-19 10 -19 30q0 17 31 30q37 12 64 37q11 8 26 8q26 0 26 -28q0 -4 -1 -7l-1 -3v-3q-10 -43 -10 -57
v-5l1 -41v-6q-1 -5 -1 -23q0 -16 3 -72q1 -12 1 -25v-38l2 3v-1q0 1 1 1t2 1q13 11 37 16l13 1h31q32 0 71 -33q69 -56 74 -120l4 -67q0 -67 -54 -122q-43 -41 -115 -41q-30 0 -49 16q-8 6 -11 9q-2 -2 -12 -10q-7 -6 -14 -6l-34 1q-8 0 -15 -1h-18q-33 0 -33 21q0 8 10 20
l9.5 9.5t7.5 8t4 4.5q2 18 2 29zM203 289q-8 1 -22 3q-10 -2 -19 -15q-4 -5 -4 -22v-23q0 -20 -1 -32q-1 -6 -1 -11v-24q0 -6 0.5 -13.5t0.5 -9.5q0 -11 3 -32v1q7 -17 18 -31l19 -26l7 -4l15 -1q1 0 5 -0.5t7 -0.5q3 -1 9 -1q32 0 50 37q14 33 14 72q0 65 -26 102
q-10 15 -26 20q-7 4 -29 9h2zM70 65l-1 -1z" />
    <glyph glyph-name="c" unicode="c" horiz-adv-x="317" 
d="M181 366h20q30 0 41 -1q36 -1 61 -36q12 -18 12 -36q0 -14 -11 -26.5t-24 -12.5q-31 0 -63 41q-11 14 -19 14q-7 1 -35 3q-15 -3 -32 -27q-13 -19 -13 -72v-9q0 -2 0.5 -4.5t0.5 -3.5v-24q4 -7 10 -21q1 -3 3.5 -7.5t4 -7.5t1.5 -5l3 -7q11 -26 25 -45q6 -9 21 -18
q12 -9 21 -9h14q29 2 52 13l-1 -1q16 9 21 9q14 0 14 -14q0 -9 -15 -21q-1 -1 -13 -10t-21 -15.5t-20.5 -13t-17.5 -6.5q-60 0 -89 14q-14 7 -38 23q-12 12 -29 35q-10 13 -24 39q-3 6 -6 36q-9 39 -9 53q0 64 41 113v-1q22 26 41 38q33 21 73 23z" />
    <glyph glyph-name="d" unicode="d" horiz-adv-x="382" 
d="M190 372q30 0 51 -24v5q-1 5 -1 16l2 27v-1l1 21q0 13 2 33q1 9 1 16q0 2 -0.5 7.5t-0.5 8.5q-1 8 -1 24v30q0 9 -6 16l-22 14q-9 6 -9 21q0 14 15 26q3 0 19 11q15 5 41 21l-1 -1q20 15 37 15q28 0 28 -27q0 -7 -2 -17q-4 -14 -6 -47q-2 -13 -6 -45q-1 -2 -1 -6
q0 -21 1 -35q2 -26 2 -35q0 -1 -0.5 -5t-0.5 -7q-1 -8 -1 -22l-1 -40l-1 -278q0 -7 2 -15l-1 1l10 -17l7 -15l-1 1q11 -18 11 -28q0 -24 -32 -24q-9 0 -16 1h-4l-3 1q-2 1 -5 1q-1 0 -4 -0.5t-5 -0.5h-9q-22 0 -32 10l-7 11l-18 -9q-16 -8 -24 -10l-17 -1h1l-21 -4
q-14 0 -35 7q-17 5 -34 16q-16 15 -29 34l1 -1q-22 36 -25 46v-1q-14 25 -14 60q0 114 49 166q23 27 81 41h-1q1 0 7 1.5l10 2.5zM203 280q-24 0 -48 -8q-25 -10 -38 -39q-9 -19 -9 -87q0 -29 21 -61q15 -22 46 -22q37 0 52 30q15 29 15 49l-1 45q0 5 1 8l2 17l-3 27
q-2 27 -4 29q-13 12 -34 12z" />
    <glyph glyph-name="e" unicode="e" horiz-adv-x="306" 
d="M175 367q57 0 106 -54q23 -26 23 -51q0 -43 -38 -43q-9 0 -14 1h-6l-4 1q-14 0 -25 -1q-1 0 -5 -0.5t-5 -0.5q-6 -1 -17 -1h-14q-15 0 -20 1h1q-27 3 -33 3q-16 0 -26 -10q-3 -2 -3 -12q0 -6 1 -15q5 -37 6 -39q5 -12 33 -36q22 -19 31 -22v1q15 -5 29 -5q20 0 53 8
q8 2 22 9q4 2 10 2q16 0 16 -17q0 -7 -5 -16q-2 -4 -2 -6h1q-5 -20 -18 -34q-1 -1 -5.5 -4.5t-8.5 -6.5q-5 -3 -31 -18q-19 -9 -59 -9q-10 0 -41 11l-10 5q-2 0 -5.5 1.5t-5.5 2.5l-3 1q-16 11 -28 31q-17 23 -35 54q-15 48 -15 64q0 4 6 39q9 63 30 89v-2q11 18 31 44
q39 35 83 35zM161 314q-23 0 -37 -17q-9 -11 -9 -21q0 -2 2 -4q18 -4 83 -4q15 0 15 4q0 14 -17 31q-14 11 -37 11zM103 13h1h-1z" />
    <glyph glyph-name="f" unicode="f" horiz-adv-x="211" 
d="M68 332q-4 6 -8 7l-28 -1q-15 3 -15 20q0 18 29 27v-1q18 8 18 11l-1 49q0 5 5 30v-1q1 4 3.5 15t3.5 16l2 9q1 14 18 64q10 29 46 62q26 21 53 21q15 0 38 -14q19 -11 19 -44q0 -40 -32 -40q-14 0 -24 5q-9 4 -19 22q-1 4 -6 4q-9 0 -12 -16l-4 -24q-8 -48 -8 -51v-2
l1 -23l1 -28v1l2 -22v-5q1 -4 1.5 -10.5t0.5 -10.5q3 -4 15 -7q43 -11 43 -35q0 -11 -6 -16q-5 -5 -43 -8q-5 -2 -6 -9q-5 -26 -5 -53v-26v-21v-24v-12v-9q0 -25 5 -71q1 -8 5 -36q14 -27 47 -34q15 -3 15 -22q0 -16 -19 -19h-123q-69 0 -69 27q0 21 25 25q8 3 24 13
q4 4 5 6v-2l1 24l2 22l1 18v9q1 11 1 28v8q-2 12 -2 24q-1 7 -1 24l-1 21q0 15 4 47q0 34 -2 38z" />
    <glyph glyph-name="g" unicode="g" horiz-adv-x="365" 
d="M214 375q11 0 23 -2l38 -19h5q-3 0 3 3q17 17 28 17q18 0 30 -13t12 -30q0 -11 -7 -25q-2 -2 -6 -8l-12 -12v-8q0 -7 2 -21l3 -26v-30q0 -27 -3 -41q-5 -21 -23 -44q-5 -9 -27 -23h1q-19 -14 -36 -23q-4 0 -24 -4q-6 -1 -16 -2t-13 -2t-8 -1h-10q-42 3 -48 3q-9 0 -9 -5
q0 -11 28 -15l51 -7l48 1q7 0 28 -14h-2q31 -12 42 -21h-1q25 -18 42 -53q4 -12 4 -38v-19v-15v-12l-1 -17q-1 -31 -11 -55q-16 -36 -52 -55l-2 -1l-4 -4v1q-1 -1 -4 -3q-52 -35 -96 -35q-56 0 -87 19q-29 19 -44 37q-30 39 -30 75q0 29 4 61q4 37 35 60q12 9 15 12v2l1 -1
q-23 39 -23 94q0 15 2 20l15 21q-15 17 -18 30v-1q-16 29 -16 94q0 55 26 92q20 29 41 40q12 6 35 11q4 1 18 8q7 4 53 4zM218 -73q-5 0 -9 -1q-8 -2 -15 -2q-3 0 -7 1q-2 0 -10 1.5t-14 2.5q-1 -1 -3 -1q-4 -2 -20 -18q-6 -6 -10 -9q-24 -23 -24 -60q0 -33 13 -51
q16 -28 69 -28q69 0 107 46q10 9 10 35q0 20 -14 38q-14 17 -43 34l-9 5h1q-16 7 -22 7zM179 302q-18 0 -37 -14l-1 -2q-1 -1 -2.5 -4t-3.5 -5l1 2q-1 -1 -2.5 -4t-2.5 -4q-19 -26 -19 -40q0 -35 6 -45l1 -2q1 -3 3.5 -8t4.5 -10q25 -46 42 -46q53 0 69 24l2 4l2 4l2.5 5
l2.5 5v-1q10 21 10 32q0 40 -12 73q-5 11 -15 20q-1 0 -2 0.5t-3.5 1t-6.5 1.5q-35 13 -39 13z" />
    <glyph glyph-name="h" unicode="h" horiz-adv-x="386" 
d="M140 663q12 0 24 -12q8 -8 8 -15q-9 -62 -9 -78v-42q1 -19 1 -43v-17l1 -27q-1 -3 -3 -19q-2 -20 -3 -23q-2 -12 -2 -22q0 -3 -1 -3q1 0 16 12q10 6 35 6q38 0 71 -20q24 -15 38 -32q7 -10 15 -44q6 -25 8 -64q1 -10 3 -33l-1 2q2 -6 2 -8q0 -4 -2 -10l1 2q-1 -8 -1 -17
l1 -31v-31q0 -21 2 -39q1 -3 10 -12h-1q20 -17 20 -29q0 -18 -27 -18q-8 0 -46 7q-6 2 -14 2q-4 0 -10 -2l-24 -4q-20 0 -20 19q0 13 8 25q10 15 14 33v-2q2 14 2 40v2q1 3 1 5q4 44 4 51t-7 29q-4 22 -4 49v10q0 3 0.5 7t0.5 5q0 17 -13 33q-10 17 -24 17q-22 0 -37 -9
q-16 -8 -16 -37v-3l3 -49l1 -41q-4 -24 -4 -30q0 -4 4 -38q1 -3 1 -8q0 -8 -0.5 -15.5t-1.5 -11.5v-3q0 -15 5 -28q0 1 1.5 0t4.5 -3.5t7 -6.5l-1 1q16 -13 16 -26q0 -17 -24 -17q-12 0 -40 4q-13 0 -33 1l-11 1q-21 -4 -33 -4q-29 0 -29 18v2q0 8 3.5 11.5t25.5 17.5l-1 -1
q5 3 8 11v2q0 1 0.5 3t0.5 4q7 21 7 36q0 9 -1 14q0 14 -1 33v47l2 10v-2l1 39l3 31v8q0 23 -6 70l1 13q0 21 1 47l1 30v10l-1 25v6q0 4 2 20q-4 18 -9 31q-3 5 -2 5h1l-20 8l1 -1q-18 3 -18 22q0 15 30 32q9 3 35 26v-1l6 7q1 1 5 4.5t6 5.5q20 20 32 20z" />
    <glyph glyph-name="i" unicode="i" horiz-adv-x="184" 
d="M123 369q21 0 21 -30q0 -8 -3 -32l1 -8v-13q0 -17 -1 -28q0 -2 -0.5 -6.5t-0.5 -6.5q0 -3 -0.5 -7.5t-0.5 -5.5v-25l2 -25v-73l2 -14q2 -29 10 -42q14 -25 14 -33q0 -23 -35 -23q-9 0 -16 1q-2 0 -4.5 0.5t-3.5 0.5q-6 1 -16 1h-5l-30 -3q-19 3 -19 25q0 10 4 14
q1 1 14 19q2 2 3 5l2 1v30l3 28l1 67q-1 11 -3 31v3q0 8 2 18v-1l1 10q1 3 1 10q0 1 0.5 4t0.5 5t-3 7q-5 5 -21 17q-3 12 -3 17q0 19 20 27q9 5 21 13q35 22 42 22zM95 492q19 0 37 -13q18 -15 18 -39q0 -18 -15 -36q-13 -21 -31 -21q-15 0 -35 14h1q-15 8 -15 24
q-3 18 -3 22q0 12 11 32q11 17 32 17z" />
    <glyph glyph-name="j" unicode="j" horiz-adv-x="189" 
d="M65 84v61q0 10 -1 17q0 1 -0.5 5t-0.5 6q0 12 -1 33q0 3 -6 33q0 2 -1.5 11.5t-2.5 14.5v-1q0 1 -1.5 2.5t-5 5.5t-6.5 8q-5 5 -5 21q0 20 13 27q4 2 7 3q8 2 12 5l-1 -1l24 16q12 8 20 14q18 18 27 18q21 0 21 -27q0 -28 -15 -55l-2 -2l-1 -2l4 -33v-6q-3 -12 -3 -25
q0 -27 3 -62l-1 2q2 -6 2 -11t-1 -9v1q-3 -34 -3 -99q0 -5 1 -10q0 -3 0.5 -9t0.5 -7l-8 -87l-1 -16l-1 -16q-2 -8 -3 -18q-1 -3 -1.5 -9t-0.5 -9q-2 -7 -15 -31h1q-7 -14 -29 -44q-19 -23 -32 -23q-17 0 -17 21q0 15 12 39q4 6 7 29l3 9v-1q2 22 7 43l-2 18l2 21
q-3 18 -3 22q0 5 3 30v44zM91 494q26 0 43 -20q11 -14 11 -31q0 -23 -23 -46q-15 -13 -24 -13q-15 0 -33 14q-9 5 -13 18v3q-1 3 -1 5l-1 2v5l-3 16q0 5 7 20.5t11 18.5q8 8 26 8z" />
    <glyph glyph-name="k" unicode="k" horiz-adv-x="391" 
d="M157 454v-18q0 -2 0.5 -7.5t0.5 -8.5t-0.5 -9.5t-0.5 -10.5q-1 -17 -1 -33q0 -15 3 -38q0 -1 0.5 -3l0.5 -2v2q1 -4 1 -12q0 -6 -5 -36q-4 -13 -4 -26q0 -10 2 -10t7 3h-1l15 14q19 10 22 13q11 11 16 18q27 19 44 41q1 7 13 35q8 11 19 11l25 -1q6 0 11 1q3 0 8.5 0.5
t6.5 0.5q47 0 47 -21q0 -12 -25 -26l-13 -9l-9 -6h1q-2 -2 -9.5 -6.5t-10.5 -6.5l-27 -16q-26 -15 -32 -21q-23 -18 -23 -26q0 -6 26 -32q7 -10 23 -41q6 -13 28 -39q0 -1 1.5 -2.5t2 -3t0.5 -2.5v1q18 -29 25 -39q9 -11 26 -24q18 -15 18 -35q0 -24 -24 -24q-8 0 -24 1h-5
q-14 0 -27 -1q-7 -1 -16 -1q-19 0 -19 9l-9 9v-19q-30 1 -30 21q0 12 10 22l7 8l-1 1q-13 24 -18 47q-3 6 -11 14q-2 7 -11 20q-5 4 -16 13l1 -1q-10 7 -15 15h1q-17 29 -26 31q1 -1 1 -15q0 -18 -4 -38l3 -40q0 -1 -0.5 -4t-0.5 -5v-8q0 -19 19 -39q13 -15 13 -23
q0 -18 -24 -18q-11 0 -31 6q-3 1 -6 1q-2 0 -25 -4q-19 0 -37 -1h-23q-18 0 -18 16q0 10 9 20l6 4l-1 -1q12 9 15 11q6 4 8 17l5 39l4 21v-1q0 1 0.5 4t0.5 5t0.5 8t0.5 9v7q1 7 1 16v5l-1 19l1 19q0 1 -0.5 4.5t-0.5 6.5v25q1 6 1 36l1 25q0 21 -1 36v56l1 23q0 3 0.5 8.5
t0.5 7.5v3q0 6 -2 28q-1 39 -8 59v-1l-5 10q-14 7 -20 13t-6 13q0 13 31 24v-1q5 3 25 11q14 6 23 10q19 12 29 22q12 13 22 13q18 0 18 -22q0 -16 -7 -30q-10 -20 -13 -33q-5 -35 -5 -65v-1q0 -20 1 -45z" />
    <glyph glyph-name="l" unicode="l" horiz-adv-x="190" 
d="M134 628v19q18 0 18 -22q0 -8 -4 -23l2 -27v-3q0 -1 -0.5 -3t-1.5 -5.5t-1 -6.5v-9q0 -2 -0.5 -6t-0.5 -7q0 -16 -1 -31v-2l2 -52l-1 -10v1l-3 -90h-5q4 -10 8 -85l2 -64v-10q-3 -21 -3 -26q0 -2 5 -38q2 -18 4 -31q0 -2 1 -5.5t1 -5.5v-2v2q3 -7 10 -28l4 -6l12 -11
q4 -10 4 -19q0 -18 -13 -21q-8 -1 -30 -1h-29q-2 0 -9 -0.5t-11 -0.5h-7l-17 1h-1h-4l-2 -1q-7 -1 -17 -1q-21 0 -21 18q0 12 6 19l16 19l-1 -1l8 13l-1 -1l10 20l-1 -1q2 10 2 29l3 28l1 11l1 9l-3 40v33q0 8 -1 12v9q0 15 4 48v-1q0 1 0.5 3t0.5 3v5q-3 18 -3 22v37l1 9
v15q1 15 1 47q0 16 -1 20v-1l-7 25q-1 15 -5 25v-1q-3 7 -6 10l-20 12h2q-10 3 -10 22t37 39q12 8 19 17l21 14v-1q15 10 20 14q-6 -4 7 -8zM120 639l-1 -1z" />
    <glyph glyph-name="m" unicode="m" horiz-adv-x="623" 
d="M435 313q-24 0 -39 -15q-13 -10 -18 -21q-3 -8 -5 -26q0 -8 -3 -17q-5 -25 -5 -36q0 -2 1 -8q0 -13 1 -19q1 -48 3 -65q2 -8 4 -35q0 -6 5 -11q8 -8 36 -29q7 -5 7 -13q0 -18 -45 -18q-6 0 -22 2q-18 2 -19 2q-4 0 -22 -3q-7 -1 -26 -1q-35 0 -35 21q0 8 10 24
q14 19 14 84h18q-2 1 -6 5.5t-9 16t-6 25.5q0 5 3 32q1 9 1 19q0 19 -14 53q-12 30 -46 30q-24 0 -43 -21q-9 -14 -12 -22v2q-2 -16 -2 -18v-3q1 -12 1 -24q0 -14 -3 -41l-1 -8l-1 -11l1 -23l-1 -34q0 -1 1 -3t1 -3l2.5 -15t1.5 -13v1q2 -7 7 -15l-1 2l5 -10q24 -25 24 -32
q0 -17 -26 -17q-7 0 -28 3h-6q-7 0 -17 -1h-7q-8 0 -13 1h-6q-3 0 -19 -2q-7 -1 -20 -1q-20 0 -20 19q0 11 6 17l20 20q8 8 11 18l-1 -3v30q1 3 1 9q0 2 0.5 6.5t0.5 5.5v12v15q-1 20 -1 47q0 5 -0.5 11t-0.5 7l1 10q1 11 1 16q2 18 2 22q0 16 -9 23q-22 15 -22 24
q0 14 9 17h-1l28 16l-1 -1q6 3 20 12.5t22 14.5q12 5 15 5q19 0 22 -18v-10l18 9h-1q9 6 46 10q23 3 42 3q47 0 78 -44l4 -5q-2 0 13 13q9 9 46 29q5 2 13 6q10 3 12 5q4 2 29 2q27 0 53 -13h-1q30 -15 64 -63q5 -20 5 -45q0 -17 -1 -31q-1 -5 -1 -12q0 -1 0.5 -5.5
t0.5 -7.5t0.5 -10.5t0.5 -11.5v-2q2 -28 2 -38t-1 -16q-1 -14 -1 -31t19 -40q5 -5 21 -18q8 -4 8 -14q0 -19 -40 -19q-34 0 -49 3l-11 2l-59 -3q-18 0 -18 24q0 10 11 24l14 18q3 4 5 18q0 4 2 18q0 4 2 14q1 6 2 14.5t1 10.5v4v17v23v5l-1 3v17q1 14 1 35q0 39 -20 57
q-12 11 -33 11z" />
    <glyph glyph-name="n" unicode="n" horiz-adv-x="378" 
d="M136 369q9 0 16 -10l1 -14l17 12q23 13 51 13q9 0 46 -8h-2q37 -4 50 -29q16 -48 16 -60l2 -12v-19l2 -29l-1 -3v-6q0 -12 -1 -21l2 -39q1 -24 7 -47q2 -12 7 -25q0 -4 17 -26q9 -11 17 -21q0 -25 -31 -25h-13l-21 2h-3q-7 0 -15 -1q-2 0 -6 -0.5t-6 -0.5q-5 -1 -11 -1
q-3 0 -9 0.5t-8 0.5q-16 0 -19 1q-18 3 -18 21q0 10 17 27q1 1 7 18l6 16l-2 45l2 10q3 15 3 35q0 87 -7 105q-12 34 -41 34q-20 0 -35 -12q-2 -6 -6 -16q-6 -13 -9 -19v-28l-2 -10v-9q0 -3 -2 -12v-8q-1 -16 -3 -30q3 -34 3 -38q0 -1 -0.5 -6.5t-0.5 -8.5q-1 -3 -1 -7
q1 -2 1 -5q0 -1 1 -7.5t2 -11.5l2 -19v2q4 -10 8 -21l-1 3q6 -9 21 -19h-1q7 -4 7 -13q0 -17 -25 -17q-11 0 -44 5l-25 2q-7 0 -31 -6l1 1q-5 -2 -12 -2q-31 0 -31 23q0 13 22 28q6 3 17 29q3 5 5 33q3 39 3 63v28q0 13 1 28q0 19 -8 27h1q-1 1 -15 9q-17 8 -23 16v1
q-1 3 -1 9q0 12 18 23q34 17 47 25q36 27 44 27z" />
    <glyph glyph-name="o" unicode="o" horiz-adv-x="400" 
d="M267 1l-1 -1q-24 -7 -45 -7q-54 0 -104 32q-35 24 -41 31q-49 49 -49 104v9v42q0 33 7 43v-1q31 66 96 93q26 11 40 15q30 5 47 5q36 0 46 -2h-2q11 -4 37 -16q26 -11 39 -29l13 -17v1q36 -42 36 -106q0 -54 -31 -116q-15 -33 -53 -57h1q-23 -17 -36 -23zM184 308
q-18 0 -25 -5h1q-24 -19 -38 -46v1q-9 -22 -9 -56q0 -33 1 -43q0 -11 13 -43q0 -2 1 -3t2 -4l-1 1l3 -9t3 -8l-1 3q7 -11 15 -15l22 -12q27 -16 28 -16q19 0 47 14q24 13 35 51q12 35 12 67q0 12 -2 16l-13 32v2v-2q-4 12 -17 40q-24 35 -77 35z" />
    <glyph glyph-name="p" unicode="p" horiz-adv-x="379" 
d="M171 368q0 -6 -1 -9q21 17 49 17q43 0 78 -18q33 -17 43 -36l-1 1q6 -8 11 -22v-2v2q10 -23 17 -50h-1q5 -19 5 -21v-64l1 -25v-3q0 -30 -32 -77q-25 -32 -51 -49l-2 -1q-2 -1 -2 -2q-21 -12 -24 -12q-7 -3 -30 -6l-21 -2l-53 12v-3q0 -4 -0.5 -12.5t-0.5 -17.5l-1 -12
l3 -33l-1 -95q0 -24 20 -38q4 -2 6 -4q3 -1 22 -9h-1q12 -3 12 -19q0 -21 -24 -21q-2 0 -7.5 0.5t-8.5 0.5h-12q-7 0 -37 -3l2 1q-6 -2 -8 -2q-13 0 -21 1q-14 2 -19 2q-1 0 -4.5 -0.5t-6.5 -0.5h-11q-31 0 -31 23q0 9 12 18q13 11 18 18l8 24l-1 -3q0 26 1 44q0 4 0.5 10.5
t0.5 9.5l3 40v1q-1 1 -1 2q0 17 -1 31q0 4 -0.5 15.5t-0.5 17.5v11l1 38l-1 17q0 7 1 14q2 10 2 11v3l-2 25l-1 25q0 13 -1 19v-1q-1 6 -1 12l1 24l1 48l3 25q-2 8 -9 15l2 -1q-5 3 -17 8q-12 4 -12 21q0 12 14 24q10 8 37 22l-2 -1q6 4 18 21q21 26 46 26q24 0 24 -25z
M198 294q-32 0 -38 -18l-5 -44q0 -2 -0.5 -6t-0.5 -5l1 -25l-1 -16v-53l2 -19v-21l-1 3q1 -6 5 -11l6 -18l-1 2q9 -13 42 -14h18h-1q1 0 3 -0.5t4 -0.5h2q14 0 27 17q30 36 30 83q0 146 -92 146z" />
    <glyph glyph-name="q" unicode="q" horiz-adv-x="386" 
d="M165 377l22 -3h2q10 -2 28 -8q12 -7 13 -8l-3 25v3q0 8 12 16t20 8q15 0 28 -12q11 -11 23 -25l22 -16h-1q3 -3 5 -4q21 -15 27.5 -22.5t6.5 -17.5t-5 -20q-4 -5 -25 -17q-1 -2 -1 -50q0 -4 1 -10q0 -3 0.5 -7.5t0.5 -6.5q1 -11 1 -26q0 -9 -4 -29v-1l-1 1q1 -4 3 -16
q0 -3 2 -11v-14h-19l1 -2q2 -3 4 -8t4.5 -11.5t4 -14t1.5 -14.5l-1 -39q-3 -17 -3 -21q0 -10 1 -18v1q1 -6 1 -76q0 -12 -1 -19t-1 -14l6 -43q0 -2 1 -6t1.5 -7.5t0.5 -7.5v-1v1q1 -4 16 -20q11 -10 11 -22q0 -26 -29 -26h-48q-13 0 -29 -1h-30q-37 0 -37 24q0 9 6 15l10 7
l8 11l16 11h-1l5 18v-1l1 1v2q4 17 4 24l-1 4q-1 8 -1 24v8l1 9q0 12 4 24q0 1 1 4v2v1l-3 25l-1 19v-1q-4 20 -5 34q-2 0 -20 -7q-11 -4 -17 -4q-13 0 -49 4q-38 4 -77 54q-44 55 -44 102q1 5 2 11v6q-2 2 -2 11q-2 8 -3 14v2q-2 12 -2 20q0 45 28 84q48 70 108 78z
M212 290q-12 -3 -25 -5q-21 -6 -24 -7q-13 -8 -28 -32q-24 -39 -24 -50l2 -21l1 -22v1l1 -8v-35l1 -1q1 -2 3 -4.5t4 -4.5l10 -15v1q13 -20 37 -33q8 -4 23 -4q38 0 48 20q8 14 11 54q1 14 1 28q0 12 -1 25l2 23l-2 19q0 7 -2 31v4v1q-4 24 -28 31q-2 1 -10 4z" />
    <glyph glyph-name="r" unicode="r" horiz-adv-x="243" 
d="M145 216v-45q-1 -10 -1 -24q0 -3 -0.5 -6t-0.5 -4q0 -5 2 -25t2 -27q0 -21 18 -32q31 -19 31 -35q0 -22 -30 -22q-12 0 -51 4h-4l-15 -1q-9 -1 -18 -1h-1q-41 1 -41 24q0 8 5 15l19 19q5 5 5 10q1 23 5 73v4l-1 32v-1q-1 22 -3 63q-3 28 -11 36l2 -1l-8 4h1l-8 4
q-15 6 -15 23q0 13 13 22q10 6 14 8h-1q1 1 5.5 3t6.5 4q21 12 31 21q13 10 31 15l10 -25q4 2 18 12q2 1 17 7q27 6 30 6q27 0 44.5 -19.5t17.5 -47.5t-17 -43q-9 -10 -23 -10q-17 0 -30 13q-7 6 -23 30l-2 2q-8 -3 -17 -31q-7 -26 -7 -54z" />
    <glyph glyph-name="s" unicode="s" horiz-adv-x="283" 
d="M48 140q9 0 17 -16q10 -21 39 -44q13 -10 23 -13q8 -2 10 -2h22q16 3 28 16q9 11 9 29q0 28 -33 45l-26 13q-2 4 -36 27v-1q-19 12 -34 24q-25 30 -25 59q0 35 19.5 60.5t54.5 35.5q10 2 38 2l21 1q7 0 15 -2q1 0 5.5 -1.5t5.5 -2.5l32 7h4q17 0 17 -48q0 -9 -1 -23
l-1 -11q0 -35 -18 -35q-16 0 -39 46q-16 30 -35 30q-20 0 -27 -16q-7 -12 -7 -21q0 -11 14 -28q4 -6 9 -8q2 -1 6.5 -2.5l12 -4t12.5 -4.5l16 -9h-1q20 -9 25 -14q21 -17 36 -39q13 -22 13 -57q0 -33 -18 -66q-14 -27 -31 -39q-20 -14 -44 -21q-21 -7 -35 -7q-11 0 -32 8
l-17 9q-1 0 -2 -1l-8 -12q-7 -7 -21 -7q-28 0 -28 24v32q0 5 -1 12v-1q-1 5 -1 34v16q0 26 17 26z" />
    <glyph glyph-name="t" unicode="t" horiz-adv-x="225" 
d="M36 367l4 -1h6q1 0 4.5 -0.5t5.5 -0.5h7q4 0 7 9q0 16 1 40q0 16 33 36l6 3h-1q20 11 26 11q24 0 24 -25q0 -3 -2 -8q-5 -15 -5 -17q5 -42 1 -44l21 2l7 -1q17 -2 22 -6l-1 1q15 -8 15 -28q0 -21 -16 -30q-3 0 -8 -1q-2 0 -11.5 -1.5t-15.5 -2.5q-12 -1 -12 -12v-11
q0 -3 0.5 -8t0.5 -7q0 -7 -3 -29q0 -15 -1 -26q0 -3 -0.5 -7.5t-0.5 -6.5q-1 -19 -1 -40q0 -74 11 -74l38 5q4 0 10.5 -11.5t6.5 -16.5q0 -16 -12 -31q-3 -4 -19 -14q-11 -11 -17 -13q-11 -8 -30 -8q-38 0 -59 28v-1q-10 13 -10 24l1 47v2q-3 24 -3 34q0 9 4 32q2 6 2 12
q0 5 -1 10q0 2 -0.5 7t-0.5 8q0 11 -1 28q0 1 -0.5 4.5t-0.5 5.5q0 7 -1 10v2v-1v1v1q-1 4 -1 9l1 13q3 18 3 26q0 11 -12 12q-35 5 -42 17l1 -1q-6 10 -6 18q0 25 25 26z" />
    <glyph glyph-name="u" unicode="u" horiz-adv-x="361" 
d="M44 362q5 0 11 -2l-1 1l25 -5h-2q4 0 6 1l26 4q45 0 45 -36v-2q-1 -2 -1.5 -6.5t-0.5 -7.5q-1 -7 -3 -25l1 -164q0 -1 -0.5 -4t-0.5 -5q0 -1 -0.5 -5.5t-0.5 -7.5q-1 -5 -1 -8q0 -18 12 -31q6 -6 11 -6q7 0 23 7t22 12q6 7 13 22t7 23l-2 42q3 31 3 33v3q-1 3 -1.5 9.5
t-0.5 13.5v-1q-1 5 -1 16q0 6 3 51q1 3 1 9q0 5 -2 13l-28 44q17 13 25 13q3 0 7 -2h3q1 0 3 -0.5t3 -0.5q3 -1 5 -1l43 1q22 0 22 -38v-58l-2 -34l1 -52q0 -14 1 -22q0 -4 1 -6l-3 -51v-1q0 -2 8 -13q20 -24 20 -30q0 -8 -12 -17v1l-23 -17h1q-41 -37 -70 -37q-16 0 -19 15
l-2 14l-7 -5q-8 -5 -15 -10q-9 -6 -28 -6q-54 0 -93 66h1q-11 19 -11 70q0 20 1 34q0 2 0.5 7.5t0.5 8.5t0.5 8t0.5 7q1 14 1 34q0 4 -3 35q-2 22 -6 28q-5 14 -14 20q-27 20 -27 32q0 19 24 19zM218 22v-3v3zM238 362l1 -1z" />
    <glyph glyph-name="v" unicode="v" horiz-adv-x="309" 
d="M13 319l-1 1q-9 14 -9 22q0 5 6.5 14.5t11.5 9.5l40 -3q1 0 2 0.5t2 0.5h-1l19 3q53 0 53 -27q0 -10 -2 -14q-1 -2 -3 -7t-2 -6q-3 -7 -3 -9l14 -38l14 -46l-1 1q12 -28 24 -48l5 -9q5 14 9 20q19 46 23 73h1q0 4 2 8q4 18 4 22q0 17 -3 22q-1 2 -1 6q-1 4 -2.5 8.5
t-2.5 6.5t-1.5 3.5t-0.5 2.5q0 16 19 21l16 3l21 4l28 1q30 0 30 -25q0 -7 -7 -21q-5 -7 -27 -30l1 2l-5 -9q-6 -7 -19 -40l1 2l-3 -13l-5 -15h1l-5 -17q-5 -12 -21 -62q-2 -7 -6 -18.5t-10.5 -28t-10.5 -28.5q-7 -15 -9 -26q-9 -31 -14 -36q-6 -8 -16 -8q-16 0 -26 14
q-5 7 -20 57q-12 37 -24 60l-2 6q-2 4 -13 36q-9 28 -28 61q-2 2 -4 9q-2 4 -2 8q-14 41 -18 49v-1q-10 18 -19 28z" />
    <glyph glyph-name="w" unicode="w" horiz-adv-x="465" 
d="M320 363q43 0 43 -22q0 -7 -17 -28l1 1q-1 -2 -7 -13t-10 -19q-10 -23 -10 -28l2 -42l-1 -14q0 -6 12 -28q2 -3 4.5 -7.5t3.5 -6.5q0 2 2 6l-1 -1q4 11 19 34h-1q4 6 7 11q22 36 22 85q0 13 -13 30q-7 11 -7 19q0 26 39 26q41 0 53 -2q20 -6 20 -28q0 -12 -5 -19v2
q-2 -4 -19 -31q-2 -2 -12 -27l-28 -80l-17 -37l-10 -27q-13 -32 -21 -62v1q-8 -32 -27 -54v1q-9 -13 -23 -13q-16 0 -22 16q-1 2 -8 22q-4 15 -9 28q-2 5 -5.5 15.5l-6.5 19.5t-7 16q-1 2 -1 3q-1 1 -3 10v-1l-2 6q0 -1 -2 -4.5t-3 -6.5t-6 -12t-7 -13q-3 -4 -9 -16
q-2 -6 -4 -10q-8 -14 -13 -22q-3 -3 -4 -12q-6 -34 -27 -34q-19 0 -28 30l-1 3q-1 2 -3.5 8t-4.5 11q-15 37 -17 43q-6 15 -18 43l-26 63l-14 38l-4 8q-2 3 -4.5 9t-3.5 9l2 -3l-7 10q-1 1 -2.5 2t-2.5 2.5t-2 2.5l-2 2q-4 4 -6 10v-1q-6 10 -8 16l-17 16q-7 7 -7 20
q0 28 37 28q7 0 15 -1q5 -1 16 -1q3 0 8.5 -0.5t7.5 -0.5h60l7.5 -2.5t5.5 -1.5q8 -6 10 -10q6 15 27 15q1 0 5 -0.5t7 -0.5q4 -1 10 -1q7 0 9 1q3 0 7 0.5t5 0.5q2 0 5 0.5t4 0.5q9 0 20 -13q4 6 12 7l11 2q21 3 27 3zM183 308q-10 7 -13 19l-1 -1l1 2l-1 1q-3 -6 -9 -12
l-15 -15q1 0 1 -3q0 -8 1 -9v1l13 -36q1 -3 7 -30q2 -9 15 -41q5 -13 11 -21l6 -12q0 -1 0.5 -1t0.5 -1l2 -8q1 0 8 13q21 38 21 50q0 8 -19 59q-12 33 -18 37zM281 319q-6 4 -7 5l4 -8q4 -9 7 -15v9q0 3 -4 9zM194 163l-1 2v-2h1z" />
    <glyph glyph-name="x" unicode="x" horiz-adv-x="319" 
d="M31 359l10 -1l14 1l15 -2l22 1l15 -1l26 1q26 0 26 -24q0 -12 -10 -28q-1 -1 -1 -2q0 -4 9 -13q11 -12 15 -21q2 -8 2 -10t-1 -3v-1l17 17l12 10l7 12q2 2 11 16q-1 2 -4 15q-2 5 -3 6q0 26 24 26h2l24 -2l30 1q32 0 32 -22q0 -16 -13 -19l1 1l-19 -6h1q-3 -1 -15 -13
l-2 -2h1q-3 -3 -15.5 -18.5t-21.5 -26.5q-14 -16 -29 -35l1 1q-4 -8 -5 -8l13 -29v1l7 -13l5 -15q19 -23 22 -30q0 -1 21 -28l16 -20q8 -7 17 -14.5t13 -11t5 -4.5q6 -7 6 -18q0 -17 -16 -26q-10 0 -18 -1h-30q-5 0 -10.5 0.5t-6.5 0.5q-2 0 -4 0.5t-3 0.5h-2q-3 0 -5 -1
h-16q-46 0 -46 22q0 4 18 33q1 1 1 6q0 11 -20 41q-16 28 -20 28q-3 -4 -10 -11l-13 -13q-25 -20 -25 -44q0 -5 13 -29q3 -5 3 -15q0 -19 -25 -19q-13 0 -27 3h1l-26 3q-1 0 -2 -1h-17q-24 0 -24 21q0 9 9 20q3 3 6 5q18 13 22 16l19 20h-1q24 27 44 52q20 26 20 35
q0 7 -1 8l-21 27l-19 36q-2 2 -3 4q-7 8 -16 23q-2 3 -4.5 7t-6 9t-5.5 8l-6 8q-1 0 -3 1.5t-6 4t-8 5.5q-16 10 -16 23q0 18 23 21z" />
    <glyph glyph-name="y" unicode="y" horiz-adv-x="324" 
d="M60 367l16 -2q4 0 40 -3q6 -1 18 -2t16 -1q12 -8 12 -22q0 -10 -16 -33v-2q0 -1 6 -28q1 -3 2.5 -10t2.5 -11q0 -9 4 -33q2 -13 9 -24q8 -22 14 -35l8 -18q3 0 8 17v-1q2 7 10 25v-1l13 39q4 7 11 29q4 10 6 16h-1q6 19 6 29q0 4 -18 40v1q-2 4 -2 10q0 21 25 21
q11 0 15 -1h-1q10 -1 17 -1l26 1h4q31 0 31 -25q0 -8 -22 -35l-4 -13q-15 -29 -20 -56q-6 -18 -24 -60q-5 -9 -11 -31l-11 -26v1l-8 -26h1l-6 -24l-12 -25q-1 -5 -3.5 -15l-3.5 -14l1 2q0 -4 -4 -11q-1 -6 -6 -15q-2 -3 -6.5 -13t-9 -19.5t-9.5 -17.5l-15 -29
q-12 -25 -18 -44q-22 -51 -27 -58h1q-41 -70 -72 -74q-4 -1 -20 -1q-33 0 -33 31q0 15 11 26t38 18q18 5 46 82l21 53l-1 -1l7 21q8 21 8 58q0 6 -3 22l-4 19v-1l-6 19h1q0 1 -0.5 3t-1.5 5t-1 4q-3 18 -6 29q-4 4 -25 57v1q-1 3 -4 11.5t-8 24t-10 29.5q-14 45 -34 60
q-25 19 -25 32q0 21 24 23q21 3 33 3z" />
    <glyph glyph-name="z" unicode="z" horiz-adv-x="298" 
d="M138 304q-27 0 -33 -1q-8 -1 -26 -11q-4 -3 -16 -19q-6 -7 -14 -7q-20 0 -20 61q0 30 22 30l48 -1l24 1h5q8 0 22 -2q6 -2 12 -2q2 0 5.5 -0.5t5.5 -0.5h12l82 1h2q23 0 23 -25q0 -11 -14 -30q-15 -18 -17 -22l-20 -44l-13 -19l1 1l-14 -24l-14 -28q-6 -10 -10 -17
q-1 -1 -2.5 -3.5l-4.5 -7.5l-6 -10q-5 -8 -8 -14q-8 -11 -19 -35q-10 -18 -10 -19t17 -1q2 0 22 3h32q20 0 39 24q17 23 27 23q19 0 19 -30q0 -13 -1 -21q-1 -2 -1 -5v-13q0 -18 -6 -26q-9 -9 -27 -9q-10 0 -15 1h1q-13 1 -22 1l-3 -1h-5q-10 0 -18 -1t-22 -1q-4 0 -48 3
q-1 0 -4.5 -0.5t-5.5 -0.5q-1 0 -5.5 -0.5t-7.5 -0.5t-5 -1q-4 0 -27 3q-37 0 -40 2q-15 5 -15 21q0 23 18 48l-1 -1q1 1 6 9t9 14l-1 -1q2 6 29 33q2 2 3 4q5 4 7 10v-1q5 10 11 24l2 4q4 8 9 15l3 2q0 1 6 15t10 23q20 24 33 57q1 3 3 6t3.5 5t1.5 3h-5q-23 9 -29 9z" />
    <glyph glyph-name="braceleft" unicode="{" horiz-adv-x="273" 
d="M244 693q30 0 30 -31q0 -24 -17 -24l-26 1q0 -1 -1 -1q-7 0 -13 -1q-1 0 -5 -0.5t-6 -0.5q-17 -2 -27 -43q-9 -39 -9 -60q0 -7 3 -45l-3 -52q0 -29 -1 -43q-4 -26 -28 -64q-11 -17 -25 -23l-10 -4t-7 -3t-3 -1q1 0 3 -0.5t6.5 -1.5t10.5 -2q27 -7 38 -39v1q15 -38 15 -52
l-1 -14l1 -22l-2 -28q0 -3 1 -5q0 -1 0.5 -4.5t0.5 -5.5q1 -7 1 -16q0 -23 4 -42q1 -4 1 -13v-12q4 -42 19 -53q8 -6 11 -6h19q41 -1 41 -30q0 -21 -19 -21h-4l-20 2l-18 -4h-8q-34 3 -49 9q-28 9 -48 33q-27 30 -27 55v2l4 56q0 15 1 28v-1q0 3 0.5 10t0.5 11q1 10 1 26
q0 63 -19 98q-4 7 -18 21l1 -2q-11 7 -11 23q0 15 10 22l-1 -1q5 5 12 10q23 22 26 70l1 45q-4 34 -5 51q-3 45 -5 67q0 62 40 97q32 26 70 27q8 0 23 4h22q5 0 8 1q4 1 11 1z" />
    <glyph glyph-name="bar" unicode="|" horiz-adv-x="361" 
d="M162 671h52v-833h-52v833z" />
    <glyph glyph-name="braceright" unicode="}" horiz-adv-x="273" 
d="M42 -16h19q6 0 10 1q7 1 14 1q12 2 18 16q17 28 17 36v1q-1 1 -1 2l1 22q0 2 0.5 6.5t0.5 6.5q1 7 1 14v13l-2 32l2 54q1 6 1 17q0 3 0.5 10t0.5 11q5 33 27 66q14 19 24 23l22 8q-7 0 -21 3q-26 7 -38 38q-14 34 -14 50v39l1 26q0 3 -1 6q0 2 -0.5 5t-0.5 5q-1 7 -1 18
q0 24 -4 40q-3 8 -3 26q-1 42 -16 53q-7 6 -12 6l-30 1l-8 -2q-22 0 -22 24t24 26l19 2l21 3l6 -1h-1q24 -2 44 -6h-1q1 -1 4 -1q35 -15 51 -34q26 -30 26 -55v-4l-4 -55l1 -19q0 -2 -3 -28q-2 -18 -2 -26q0 -21 5 -59q6 -25 15 -40q1 -1 6.5 -7t11.5 -12q10 -8 10 -23
q0 -11 -7 -20q-4 -4 -7 -6q-3 -3 -7 -5q-21 -14 -26 -71q-1 -15 -1 -57q0 -29 10 -86q1 -4 1 -18q0 -63 -40 -96q-32 -26 -71 -27q-8 0 -23 -4l-22 -1q-6 0 -8 -1q-5 -1 -11 -1q-30 0 -30 24q0 26 24 30z" />
    <glyph glyph-name="asciitilde" unicode="~" horiz-adv-x="637" 
d="M514 648l28 -15q-23 -37 -53 -60h1q-45 -34 -91 -34q-23 0 -63 13q-80 23 -108 23q-31 0 -52 -20q-4 -3 -33 -32l-28 16q63 94 143 94q30 0 90 -19q49 -15 73 -15q48 0 93 49z" />
    <glyph glyph-name="nbspace" unicode="&#xa0;" horiz-adv-x="230" 
 />
    <glyph glyph-name="exclamdown" unicode="&#xa1;" horiz-adv-x="182" 
d="M124 164q0 -14 2 -30v1q2 -10 4 -43v-6q1 -12 5 -77v1q0 -1 1 -5t2 -10t3 -12l5 -15q1 -2 2 -35q0 -11 1.5 -27t3 -40.5t2.5 -43.5q1 -4 1 -11t1 -10l-1 2q2 -6 2 -12q0 -23 -10 -50v1q-8 -26 -32 -31q-19 -4 -27 -4q-46 0 -46 98q0 17 3 49q4 56 9 85v34l7 57v-1
q2 28 7 51q0 8 1 19l3 72q0 3 1 8.5t1.5 10t0.5 6.5v-2q0 4 1 6q0 1 -0.5 3t-0.5 4q-1 4 -1 13q0 21 22 21q19 0 27 -23v-54zM105 405q9 0 22 -11q16 -17 20 -25q4 -5 4 -25q0 -55 -40 -55q-6 0 -28 11t-26 15q-8 11 -8 34q0 27 11 39q13 17 45 17z" />
    <glyph glyph-name="cent" unicode="&#xa2;" horiz-adv-x="317" 
d="M200 604q28 0 28 -20v-1l-1 -12l-1 -19l-2 -17q1 -4 5 -9q2 -2 10 -3q76 -19 76 -75q0 -15 -11 -27.5t-24 -12.5q-38 0 -53 28q-3 4 -2 5q-2 0 -2 -3l1 -71q0 -4 -2 -26l1 -64q-3 -9 -5 -14q-6 -13 -6 -29q0 -20 10 -30q2 -2 3 -2q29 0 47 12q13 9 22 9q14 0 14 -14
q0 -10 -14 -22v1q-2 -2 -8 -6q-7 -7 -11 -10q-9 -9 -49 -29l-10 -2q7 1 -1 11l1 -11h-1h1l3 -27v-8q-3 -13 -3 -16l2 -31q0 -6 -11.5 -15t-18.5 -9q-12 0 -20 12q-2 10 -4 27q-3 13 -3 19q0 7 4 22l-1 11q-1 16 -3.5 19t-14.5 6q-53 22 -81 64l-6 9q-3 4 -8.5 13.5
t-8.5 13.5q-2 7 -7 40q-9 43 -9 55q0 65 41 114q38 44 65 52l40 10q4 1 4 21q0 4 -3 34l1 -2l-2 8q0 21 28 21zM167 468q-13 0 -29 -21q-13 -17 -17 -37q-3 -22 -3 -42v-12q0 -2 0.5 -6t0.5 -5v-18q0 -1 4 -11v1q12 -27 18 -45v1q1 -1 2.5 -4t5 -9.5t7.5 -13.5l10 -18
q1 5 1 13v18l1 40l3 91q3 15 3 30v23q0 18 -2 22q-2 3 -5 3z" />
    <glyph glyph-name="sterling" unicode="&#xa3;" horiz-adv-x="469" 
d="M78 364q8 0 35 -3q9 1 9 4q0 7 -21 34l-26 52l-10 19q-6 12 -6 28q0 43 12 70q8 16 15 26q6 8 21 23q1 2 6 7q18 22 31 29q2 2 16 7h-2l12 7q18 9 49 9q29 0 40 -4h-1l53 -20l-1 1q62 -16 72 -23q5 -7 11 -34l3 -55v1l6 -26l-1 -27q0 -3 1 -7q0 -1 0.5 -3.5t0.5 -3.5v2
q1 -4 1 -12q0 -26 -23 -26q-16 0 -23 16q-4 6 -4 19q-3 9 -10 26q-3 8 -5.5 17t-3.5 11q-3 2 -6 7q-6 5 -9 13q-4 4 -15 17v-1q-3 3 -7 8.5t-6 7.5q-9 9 -31 20q-6 3 -15 6l-16 8q-10 5 -15 5q-39 0 -58 -25q-18 -21 -18 -40q0 -14 7 -32l-2 2q0 -1 1.5 -2.5t2.5 -3.5
q7 -11 9 -13q32 -51 65 -78l-1 1q7 -4 18 -29l10 -11q1 -1 6 -8t10 -12q10 -7 33 -7q2 0 7 1q1 0 4 0.5t5 0.5l22 -1l14 1h3q23 0 23 -29q0 -31 -24 -31l-11 1l-24 -1h-20q-3 -3 -3 -11t3 -22l-1 1q2 -6 2 -11l-5 -23v2l-1 -36l-3 -17v1l-1 -14l-3 -9q-9 -31 -9 -51
q0 -6 4 -9q4 0 12 -2q3 0 5 -0.5t5 -1.5l6 -2q20 -7 30 -7q18 0 28 10q9 12 27 39q-1 0 -0.5 2.5t2.5 8t4 12.5l8 27q1 0 1 8q0 2 0.5 6t0.5 7q2 44 27 44q17 0 23 -17v1q5 -7 5 -26t-13 -74l-2 -10l-3 -13q-18 -71 -62 -99l2 2q-29 -22 -33 -24h1q-14 -10 -45 -10
q-5 0 -35 9h1q-11 2 -24 7l1 -1q-3 1 -32 18v-1q-12 6 -18 6q-5 0 -6 -1l-14 -13q-21 -18 -63 -18q-7 0 -28 7q-10 2 -17 4h1q-2 1 -6 1q-7 4 -14 9q-19 16 -28 40q-4 6 -7 43q0 29 25 62q26 33 64 33h16q12 -2 16 -2q25 -5 49 -29q8 -6 22 -6q19 0 19 38q0 43 -48 100
q-14 16 -13 16q-3 0 -9 -0.5t-9 -1.5q-21 -3 -27 -3q-10 0 -18 2l-10 2t-7 1.5t-3 0.5v-1l-3 -1h-3h1q-11 -3 -20 -3q-22 0 -22 27q0 34 38 34zM103 127q-7 0 -11 -4q-3 -5 -8 -19l-8 -20q0 -8 3 -12q18 -24 55 -24q30 0 30 18q0 14 -17 35q-7 10 -14 17q-17 9 -30 9z" />
    <glyph glyph-name="currency" unicode="&#xa4;" horiz-adv-x="434" 
d="M301 196q-7 -4 -22 -13q-21 -12 -39 -12q-50 0 -88 21h1q-6 3 -8 3q-4 0 -13 -12q-25 -26 -38 -26q-16 0 -16 18v10q0 4 2 2l-7 7q-4 2 -4 26q0 6 10 16q11 10 11 17q0 5 -3 9q-21 29 -21 75q0 19 13 46q4 14 4 15q0 3 -10 16q-13 16 -13 26t7 17l8 9q15 21 27 21
q14 0 27 -17q11 -13 14 -13q4 0 10 3q45 21 92 21q14 0 47 -11h-3q1 0 1 -0.5t1 -0.5q3 -1 7 -1q1 0 9 4l-1 -1l27 22l-1 -1q4 4 11 4q11 0 20 -10v1q14 -10 14 -31q0 -14 -15 -35l-2 -4q0 -3 8 -16q12 -20 12 -58q0 -51 -19 -90v-6q0 -1 3 -4q17 -14 17 -30
q0 -12 -15.5 -26.5t-27.5 -14.5q-7 0 -25 18q-6 6 -12 6zM231 408q-14 0 -38 -11q-10 -4 -13 -9q-9 -13 -12 -19l-16 -21q-5 -17 -5 -26q0 -12 13 -41q10 -16 18 -22h-1q15 -14 48 -14q6 0 39 18q12 6 19 13l-1 -2l13 19q7 7 9 13q2 8 2 12q-3 12 -5 46q-1 0 -2 3
q-18 25 -29 31q-13 10 -39 10z" />
    <glyph glyph-name="yen" unicode="&#xa5;" horiz-adv-x="486" 
d="M184 371h-22q-4 0 -9 -1q-1 0 -4 -0.5t-4 -0.5l-24 1l-15 -1h-2q-24 0 -24 28q0 11 7.5 22t16.5 11l12 -1l25 1l20 -1l2 2q0 13 -34 69q-23 38 -57 78l-18 19v-1l-15 13h2q-25 16 -28 19q-7 9 -7 17q0 5 7 14q5 5 44 6q29 3 32 3q9 0 29 -4q6 1 26 3h9q3 0 15 -2
q5 -1 13 -1h9q38 0 38 -25q0 -10 -8 -18l-16 -18l1 1q-6 -6 -6 -15q0 -14 28 -55q7 -10 18 -33l-2 3q2 -4 4 -7v1q2 -3 9 -15.5t11 -20.5q3 -5 5 -9.5t3.5 -8.5t2.5 -5q2 2 8.5 10.5t11.5 14.5l-1 -1l25 48l14 15l-2 -2l14 27q11 20 11 21q0 12 -12 27q-2 4 -8 10h1
q-3 3 -16 12q-9 6 -9 18q0 25 39 25h8q4 0 9.5 -0.5t7.5 -0.5q3 0 7.5 -0.5t5.5 -0.5q2 0 17 3q5 1 15 1q11 0 39 -4q37 -6 37 -27v-1q0 -11 -5.5 -16.5t-36.5 -23.5q-15 -7 -33 -30l1 1q-4 -5 -21 -24q-7 -7 -21 -36l-16 -25l1 1l-9 -19q-4 -6 -8 -13t-6.5 -11.5t-4.5 -7.5
l15 1q4 0 8 -3q11 -4 20 -4h4q4 2 5 1l17 5q23 0 23 -28q0 -37 -39 -37q-1 0 -3 0.5t-4 0.5q-1 0 -4.5 0.5t-5.5 0.5l-9 1q-11 0 -27 2q-7 1 -11 1q-16 0 -18 -7l1 1q-4 -17 -4 -32q0 -6 23 -6q14 0 30 2l24 -1l15 1h3q22 0 22 -26q0 -9 -5 -18v1q-7 -16 -13 -16h-2l-25 2
l-12 -2h-10q-10 0 -15 1q-2 0 -4.5 0.5t-3.5 0.5q-9 1 -22 1q-5 0 -5 -17q0 -8 1 -15q2 -14 2 -21l-2 -28v1l-1 -78v-6q0 -21 6 -33q8 -16 27 -31t19 -30q0 -17 -14 -17h-2l-23 1h-4q-5 -1 -35 -1q-1 0 -3.5 0.5t-4.5 0.5q-11 0 -15 1q-16 -3 -30 -3q-8 0 -13 1h1
q-9 1 -16 1l-12 -1h-27q-27 0 -27 19q0 14 9 20l23 11h-1q9 4 27 34q14 15 14 25q0 -1 -1 0l-1 21l3 45q0 15 1 27q0 46 3 63q1 4 1 10q0 1 -3 1q-2 -1 -19 -3q-1 0 -4.5 -0.5t-5.5 -0.5h-6q-11 0 -19 1l-21 -2l-9 5l-16 -4q-23 0 -23 27q0 35 39 35q9 0 15 -1q28 -3 51 -4
h3q14 0 14 10q0 14 -5 25q-3 3 -3 6q-12 3 -18 3z" />
    <glyph glyph-name="brokenbar" unicode="&#xa6;" horiz-adv-x="361" 
d="M162 671h52v-346h-52v346zM162 169h52v-331h-52v331z" />
    <glyph glyph-name="section" unicode="&#xa7;" horiz-adv-x="477" 
d="M106 128q30 0 53 -40h-1q12 -20 12 -34q0 -12 -12 -32h1q-8 -15 -8 -25q0 -12 11 -16q24 -6 75 -12l26 -3q11 1 33 14h-1q7 5 15 13q2 3 3 5t3.5 6.5t5.5 9.5q14 14 14 19v27l1 22q-1 22 -44 32q-13 3 -41 18l-66 21l-12 5l-17 7l-13 7q-8 3 -25 9l-3 1l-4 4t-14 12h1
q-14 9 -29 29q-10 22 -11 67q-1 11 -1 22q0 21 12 42l2 2q1 2 4.5 6t8.5 10q39 42 39 47q0 3 -12 14l1 -1q-47 40 -47 76q0 27 22 74q12 28 32 49q3 1 9 6q16 13 23 17l-1 -1l27 20q10 6 25 11q18 5 27 5h4l29 -3q43 -9 48 -10h-1q39 -8 49 -15q16 -8 46 -52q12 -19 12 -39
q0 -36 -5 -42q-16 -24 -19 -27q-17 -15 -37 -15q-11 0 -28 14q-30 22 -30 68q0 8 17 36v-1v3q-3 3 -10 8q-13 9 -16 9h-12l-27 1q-42 -4 -59 -16q-9 -6 -13 -12q-18 -33 -18 -60q0 -22 12 -32q16 -13 34 -17q30 -6 38 -9q27 -18 61 -31q1 -1 15 -5q2 -2 17 -6l-1 1
q28 -5 36 -9q1 0 10.5 -6.5t18 -12.5t11.5 -10q38 -52 38 -86q0 -38 -13 -70v1q-6 -16 -13 -26l-37 -37v-3v-1l22 -27q7 -10 15 -35t8 -37q0 -44 -23 -88q-12 -20 -22 -31l-10 -10l-7 -7v1q-18 -18 -34 -26h1q-8 -6 -42 -17v1q-13 -5 -35 -5h2q-16 -6 -23 -6q-19 0 -74 15
q-10 3 -15 5q-2 1 -4.5 1.5t-4.5 0.5q-3 1 -13 7q-7 3 -25 16v-1q-19 10 -30 21q-16 23 -18 27q-12 28 -12 61q0 23 18 51q21 30 45 30zM200 385l-8 2q-6 -2 -25 -21q-3 -3 -11 -23q-8 -22 -8 -24q0 -35 23 -52q13 -11 37 -16h-1h1h1q5 -1 25 -9q31 -13 36 -13q4 -1 28 -9
q6 -2 11 -2q20 0 28 11q1 2 3 6.5t5.5 12t6.5 14.5q10 23 10 29q0 23 -24 43q-3 4 -29 9l-14 7q-1 1 -6 3t-8 4q-5 3 -23 7q-9 1 -44 18q-6 1 -14 3z" />
    <glyph glyph-name="dieresis" unicode="&#xa8;" horiz-adv-x="455" 
d="M280 421q14 0 29 -8q23 -9 23 -35q0 -17 -23 -34q-13 -11 -23 -11q-21 0 -40 16q-9 9 -9 22l-3 11q0 2 6.5 15t8.5 15q11 9 31 9zM178 422q11 0 28 -10q5 -7 9 -18q1 -3 2 -8t1 -6l1 -5q0 -17 -13 -30q-11 -8 -21 -8q-44 0 -51 29q-3 7 -4 14q0 20 9 29q14 13 39 13z" />
    <glyph glyph-name="copyright" unicode="&#xa9;" horiz-adv-x="733" 
d="M381 686q86 0 137 -24q70 -30 116 -93q36 -59 38 -64q19 -32 34 -82q8 -27 10 -45q0 -1 0.5 -8.5t0.5 -12.5q0 -4 0.5 -13.5t0.5 -15.5q0 -3 0.5 -9t0.5 -8v-3q0 -36 -15 -85q-5 -17 -17 -38l-1 -3q-2 -2 -4 -5t-4 -5q-5 -7 -13 -22q-3 -5 -39 -57q-51 -51 -116 -77
q-41 -17 -64 -23q-4 0 -45 -3q-42 -3 -56 -3q-48 0 -84 13v-1q-21 6 -58 33l-17 12l-2 2l-5 2.5t-6 3.5q-2 0 -27 23q-14 12 -27 25l-15 19l-17 28h1q-4 6 -13.5 19.5t-14.5 21.5q-5 5 -6 13q-3 15 -4 19l1 -2q-14 34 -14 42q0 10 -1 23q0 4 -0.5 10.5t-1.5 9.5q-2 17 -2 20
q0 6 3 36l-2 43q0 39 19 74l21 39v-1l3 6q0 1 1 3t2.5 4t3.5 4t3 4l11 12l-1 -1l10 13l15 16q15 17 29 31q13 13 34 26q87 54 197 54zM348 622q-12 0 -24 -4h1q-14 -6 -22 -8q-15 -6 -47 -20q-7 -3 -60 -49v1q-16 -19 -38 -48q-23 -34 -23 -35t-4.5 -10t-6.5 -16h1l-5 -18v2
l-2 -43q-10 -20 -10 -26q0 -10 2 -25q0 -6 2.5 -24.5t3.5 -31.5q3 -24 21 -71l1.5 -3t0.5 -2l-1 1q1 -3 5 -13.5t6 -16.5q9 -8 36 -31q6 -8 13.5 -16.5t8.5 -9.5q2 -1 6.5 -3.5t12 -6.5t14.5 -8q4 -2 9 -4q4 -2 14 -8t16 -9h-1q21 -9 38 -11l34 -2q13 -1 28 -1h8q39 0 55 4
q16 5 31 15q14 8 49 23l11 6q11 8 26 26l2 2l7 6l-3 -2l3 4q21 21 48 60q16 22 20 33q0 1 0.5 4t1 9.5t0.5 12.5l2 6v-3q0 16 4 35v-1q0 1 1 3v2q1 4 1 9q0 4 -4 24q-5 25 -5 32q0 10 -0.5 22.5t-0.5 15.5q-4 21 -7 30q-10 29 -35 67q-5 7 -15 20q-8 10 -35 35l1 -1
q-1 1 -40 35q-4 3 -6 6q-4 3 -8 7q-1 1 -51 13h1l-52 5zM372 549q64 0 117 -30q13 -7 20 -10q19 -6 19 -53v-15q0 -3 -0.5 -8.5t-0.5 -7.5v-4q0 -23 -19 -23q-16 0 -26 29v-1q-5 8 -14 22q-1 1 -4.5 3.5t-9.5 7t-13 9.5q-3 2 -13 8t-18 11h1q-6 2 -25 5l-22 3q-4 0 -16 -5
q-10 -2 -35 -19l-6 -3q-9 -5 -11 -7q-19 -19 -31 -43q-8 -19 -8 -22l1 -28q0 -4 -2 -8l1 4l-1 -1v-1q-1 -3 -6 -23l3 -25l-2 -17l2 -12l-1 -21q0 -5 16 -34q12 -21 41 -39q22 -12 42 -12h36q12 0 22 1q1 0 5 0.5t6 0.5q5 1 17 3q23 15 30 35q2 5 13 17q0 1 1 3q7 23 23 23
q22 0 22 -27v-30q-1 -3 -1 -16q-2 -29 -9 -33q-1 0 -4 -2t-8.5 -5t-9.5 -5q-3 -1 -12 -6t-13 -7l-15 -5q-28 -7 -38 -7h-41l-10 1l-18 -1h-2q-29 0 -84 38q-27 18 -41 33q-32 31 -52 79q-9 24 -9 67v14l1 10q1 56 31 89q4 4 14 16l-1 -1l16 25q9 16 89 49q31 11 63 11z
M147 165q0 -1 1 -2z" />
    <glyph glyph-name="ordfeminine" unicode="&#xaa;" horiz-adv-x="271" 
d="M135 419q-3 0 -2 1l-9 -10q-23 -15 -27 -15q-23 0 -23 25q0 28 38 42l-1 -1l7 3q11 5 28 5q24 0 45 -15q23 -17 23 -44q0 -19 -1 -40v-57q0 -7 32 -24q-5 -12 -15 -27q-18 -22 -36 -22q-11 0 -20 7q-2 1 -5 3q-4 2 -5 3q-1 0 -2 -1l-6 -3l2 1q-17 -10 -40 -10
q-27 0 -45.5 16t-18.5 47q0 22 5 32q15 23 49 40q10 3 40 20q5 3 5 6q0 1 -8 15v-1q-3 4 -10 4zM155 357l-2 2q4 -5 -5 -13l-11 -9q-1 -2 -3 -3l-3 -2q-12 -12 -12 -23q0 -7 9 -11q14 -4 16 -4q7 0 9 17q2 25 2 38v8z" />
    <glyph glyph-name="guillemotleft" unicode="&#xab;" horiz-adv-x="310" 
d="M185 352q20 0 20 -20q0 -1 -2.5 -6.5t-4.5 -8.5l-3 -17q-2 -11 -16 -25v1l-8 -8q-2 -3 -6.5 -10.5t-6.5 -11.5l-6 -9l-10 -15l-14 -15q-11 -11 -11 -17q0 -1 13 -15q10 -10 17 -31v1l7 -13l6 -13l13 -14h-1q27 -27 27 -53q0 -24 -23 -24q-8 0 -25 13l-15 11q-6 4 -22 31
q-1 1 -2.5 3t-2.5 3q-4 3 -14 17l-16 19q-10 8 -29 28l2 -1q-18 9 -20 16q-5 6 -5 18t6 20l19 19q20 23 26 27q22 19 52 55l12 10v-1q6 7 27 26l2 3q9 7 14 7zM281 334q20 0 20 -18q0 -5 -9 -21h1q-8 -16 -10 -18q-1 -3 -24 -35l-3 -3l-13 -18q-24 -24 -24 -35q0 -6 9 -19
q6 -17 25 -39q12 -14 21 -33q0 -1 1 -2q0 -1 2.5 -3.5t3.5 -4.5v1q13 -22 13 -34q0 -23 -23 -23q-15 0 -28 23q-1 2 -15 16l-15 15q-21 21 -31 36q-16 19 -24 25q-18 18 -18 44q0 9 14 30q12 17 13 19q10 10 25 23q22 30 26 34t5 4l16 10l-2 -1l14 14h-1q10 13 29 13h2z" />
    <glyph glyph-name="logicalnot" unicode="&#xac;" horiz-adv-x="478" 
d="M355 0v211h-321v56h428v-267h-107z" />
    <glyph glyph-name="sfthyphen" unicode="&#xad;" horiz-adv-x="180" 
d="M21 194l20 -1h16l16 -2h-1q4 0 13 3q6 1 10 1q3 0 10.5 -0.5t11.5 -0.5q8 -1 18 -1q1 0 6 0.5t9 0.5q12 2 17 2q17 0 29 -13l-1 1q6 -6 6 -12q0 -3 -4 -10q-1 -1 -1 -3q0 -21 -4 -26l1 1q-8 -10 -17 -10q-11 0 -17 1h1q-2 0 -6 1l-10 2q-8 0 -20 -2q-3 -2 -7 -2h-3l-25 3
l-15 -3q-3 0 -7 0.5t-5 0.5h-4l-18 -1l-10 -1q-4 -1 -9 -1q-12 0 -19 10q-2 3 -2 8l5 41q5 11 16 13z" />
    <glyph glyph-name="registered" unicode="&#xae;" horiz-adv-x="745" 
d="M364 684q46 0 119 -24q43 -12 84 -39v1q23 -15 31 -21q24 -24 33 -32l-1 1q38 -34 55 -67v1q17 -33 34 -99v1q1 -5 5 -20.5t6 -24.5q2 -10 2 -25q0 -62 -24 -127q-14 -35 -31 -67q-5 -5 -12.5 -15t-17.5 -21v1q-74 -87 -128 -103v1q-10 -3 -44 -8q-2 0 -36 -7
q-11 -3 -34 -3l-27 -3l-32 4l-32 8q-9 2 -27.5 5t-24.5 4q-2 2 -22 12h1q-1 1 -2.5 2t-2.5 1l-39 20l-4 4q-1 2 -5.5 5.5t-6.5 5.5q-22 17 -30 26q-8 6 -26 27q-29 26 -39 39q-18 23 -22 35q-10 27 -15 44l-11 33l-1 26v-1l-2 16l-1 24l-2 47v3q0 32 24 88q38 89 136 168
q66 54 172 54zM394 53l28 -2q3 1 13 3q3 1 7 2t10.5 2.5t10.5 2.5q5 1 14.5 4t13.5 4q8 2 14 4q11 4 35 20l-1 -1q7 9 19 18q24 20 33 29q31 29 37 44q5 7 11 31q9 30 21 63q3 7 3 17l-3 20v12q-2 27 -9 78v-1q-5 31 -7 34q-6 11 -17 24l-4 6q-6 4 -19 25q-8 13 -28 23
q-17 9 -30 25q-24 22 -33 27h1q-1 0 -4.5 2.5t-5.5 3.5q-1 0 -4 1.5l-5 2.5q-40 18 -73 24q-6 0 -9 1q-2 1 -5.5 1.5t-5.5 0.5q-6 2 -13 2q-37 0 -67 -3q-20 -2 -22 -2h-3q-15 0 -21 -2q-4 -1 -44 -24q-2 -2 -39 -34q-12 -10 -38 -34l1 2q-8 -8 -18 -34q-15 -33 -18 -47
q-4 -13 -7 -48q-3 -30 -3 -39q0 -14 7 -49q6 -39 7 -42q4 -6 7 -13q2 -4 5 -9l9 -20l28 -31q9 -21 13 -25q16 -16 61 -51q14 -10 58 -32q39 -19 44 -19h-1zM496 361q-15 -22 -35 -36q9 -9 17 -34q1 -11 5 -21q1 0 1 -1t1 -1l-1 1q0 -3 2 -3q0 -1 3 -10q4 -14 6 -23
q1 -17 7 -30q2 -2 3 -2l12 -2h-1q25 -1 25 -26q0 -15 -20 -26q-1 0 -3 -0.5l-2 -0.5q-4 -4 -8 -5q-31 -17 -45 -17q-13 0 -23 14l1 -1q-3 7 -6 15q-1 1 -1 1.5v1.5q-11 25 -15 50l-6 20l-5 31l-3 14v-1q-3 18 -9 24q-17 19 -37 19q-5 0 -6 -6q-2 -4 -2 -21l-2 -20l-1 -17
l-2 -18q1 -6 3 -26q1 -16 6 -22h-1q1 0 4 -1.5t8 -3.5t11 -5q12 -8 12 -21q0 -18 -19 -21h-2q-2 -1 -4 -1q-7 0 -13 -1l-21 1h-15q-18 3 -19 3h-2q-1 -1 -3 -1.5t-4 -0.5q-12 -2 -20 -2q-31 0 -31 24q0 12 9 18l14 10q9 13 12 19q0 1 0.5 8t1 22.5t0.5 32.5q1 7 1 23
q1 7 1 10q0 4 -1 12q-1 11 -1 34l1 24q0 12 18 30h-19q0 12 -1 21v10q0 18 -5 46q-1 2 -1 4q-1 8 -3 11q0 3 -4 4q-18 9 -18 22v2q0 9 1.5 13t11.5 7t32 3q10 0 15 1h11q4 0 18 -2q5 -1 15 -1q4 0 7 1q3 0 5 1h-1q4 1 11 1q17 0 68 -8q10 -3 44 -30q7 -7 23 -37l3 -6l-1 1
q11 -20 11 -40q0 -29 -19 -59v1zM385 359q13 0 32 17q16 16 16 42q0 5 -1 10q-1 3 -1 4q-4 8 -4 15q-2 7 -3 8q-3 1 -16 15q-15 19 -24 20q-2 0 -4.5 -0.5l-7.5 -1.5l-10 -2q-5 -2 -6 -4q-9 -15 -9 -23v-1l2 -19l-1 -13v-9q0 -3 1 -9l-1 1q2 -6 2 -9l-1 -26q1 -4 1 -12v-3
h35z" />
    <glyph glyph-name="macron" unicode="&#xaf;" horiz-adv-x="451" 
d="M167 385q1 0 3 -0.5t4 -0.5h16h8q3 -1 9 -1q5 0 10 1q3 0 7 1l4 1q7 0 25 -3q3 -1 7 -1l24 5q5 1 12 1q15 0 23 -8t8 -14q0 -3 -4 -11q-1 -16 -5 -23q-3 -8 -15 -8q-3 0 -17 2q-5 1 -9 1q-8 0 -22 -2h1q-3 -1 -8 -1l-24 2l-4 -1q-4 -1 -8 -1q-7 0 -11 1h-6h-6
q-1 0 -5 -0.5t-5 -0.5l-17 -2q-19 0 -19 16q0 9 2 19v10q0 18 22 18zM218 325h2h-2z" />
    <glyph glyph-name="degree" unicode="&#xb0;" horiz-adv-x="428" 
d="M320 428q-25 -25 -55 -33q-18 -6 -29 -6q-77 0 -109 38q-20 34 -30 52l1 -1q-8 14 -8 28q0 34 7 51q8 19 20 34q22 31 53 46q22 14 57 14q19 0 38 -11l-1 1q25 -9 36 -19q28 -33 40 -71q7 -37 7 -47q0 -24 -15 -52l-5 -10t-3 -7q0 -3 -4 -7zM215 582q-8 0 -32 -12
q-12 -5 -18 -13q-11 -14 -11 -39q0 -3 15 -31q5 -10 10 -15l-1 1l17 -11l8 -8h1q2 -1 5 -1q14 2 23 3q19 2 19 3q33 24 33 55q0 9 -9 31q-3 6 -6 9q-3 1 -7 5q-2 1 -3.5 2l-3 2t-2.5 2q-23 17 -38 17zM322 432v-1v1z" />
    <glyph glyph-name="plusminus" unicode="&#xb1;" horiz-adv-x="439" 
d="M196 279q0 9 -8 11l-24 -1q-22 3 -25 3q-10 -1 -18 -1l-13 -1l-35 -3q-41 0 -41 30q0 37 19 44q17 4 47 5q8 0 15 1h11q6 0 12 -1h-1q1 -1 5 -1q7 -1 16 -1q34 0 34 13v2q0 1 -2 19v10q0 10 1 15q0 1 0.5 4t0.5 4t-0.5 5t-1.5 9t-1 7q0 4 -0.5 11t-0.5 9q0 6 2 22
q5 24 31 24q21 0 32 -9q-5 -14 -5 -61h19q0 -2 -0.5 -9.5t-0.5 -11.5v-17q0 -36 8 -44q2 -3 12 -3q3 0 27 6q5 1 14 1q4 0 16 -2q4 -1 12 -1q3 0 34 3h14q24 0 24 -25l-1 -3v-4q0 -1 -0.5 -4.5t-0.5 -5.5v-13q0 -19 -27 -21l2 1q-6 -2 -13 -2q-1 0 -3 -0.5t-3 -0.5
q-6 -1 -15 -1t-16 1h-4l-3 1q-4 1 -8 1h-7q-8 -1 -20 -1h-5q-3 0 -8 0.5t-7 0.5t-4.5 0.5t-3.5 0.5q-5 0 -7 -8q-3 -9 -3 -11l2 -30l1 -32v1l3 -20l-3 -26q-5 -24 -23 -24h-2l-13 1l-19 -3q-22 0 -22 34v5l2 35l-3 38l3 12q2 6 2 12zM107 116h3q2 0 5.5 -0.5t6.5 -0.5
q6 -1 11 -1q10 0 24 1h-1q5 1 14 1t40 -4q8 1 25 1q14 0 54 -2h19q22 -3 26 -3h12q2 0 6 0.5t6 0.5h25q30 0 30 -20v-3l-2 -14q0 -23 -8 -31q-6 -7 -25 -7h-7q-1 0 -6 -0.5t-10 -0.5q-3 0 -11.5 -0.5t-13.5 -0.5h-10q-1 0 -4 0.5t-6 0.5q-13 0 -21 1q-30 0 -87 3q-9 1 -18 1
q-4 0 -32 -2h-4l-44 1q-1 0 -3 -1h-2h-21q-32 0 -32 21v2l2 18l-1 18q3 16 22 18v-1q7 2 38 4zM259 499q-3 7 -8 10q3 12 7 -5q1 -2 1 -5zM263 465q-1 8 -2.5 19.5t-1.5 14.5l1 -1q0 -2 1 -2q0 -5 1 -15q1 -7 1 -16z" />
    <glyph glyph-name="twosuperior" unicode="&#xb2;" horiz-adv-x="276" 
d="M162 337l24 -2q11 0 18 7q21 19 25 19q6 0 13 -10t7 -16q0 -9 -3 -22l-1 -4q-1 -4 -1 -5q-1 -5 -3 -17q-4 -34 -29 -34q-11 0 -18 1q-3 0 -8 0.5t-6 0.5q-7 0 -13 -1h-10q-19 0 -31 -1h1q-4 -1 -17 -1q-10 0 -27 3l-30 -3h-2q-24 0 -24 26q0 28 39 71q7 9 32 41l8 11
q1 1 10 12q1 2 26 32q10 10 15 21q26 43 26 82q0 8 -6 27l1 -1q0 1 -1 3v2q-22 14 -30 17l-18 -5q-27 -2 -44 -16q-4 -4 -11 -4q-19 0 -19 19q0 10 21 41q26 34 66 34q22 0 40 -2q2 -1 10.5 -5t14.5 -6q0 -1 -1 -1q1 -1 3 -1q2 -1 3 -1q39 -21 46 -55v1q3 -9 3 -42v-5
q0 -28 -13 -60q-12 -18 -31 -42l-32 -32l-33 -37l1 1l-15 -18q-3 -5 -13 -17v-1q0 -6 6 -6q4 0 9 1h22z" />
    <glyph glyph-name="threesuperior" unicode="&#xb3;" horiz-adv-x="277" 
d="M56 383q17 0 34 -20q11 -11 11 -28l-1 -26q2 -2 9 -6q11 -8 19 -8q4 2 14 5v-1q1 0 3.5 0.5t3.5 1.5l6 7l6 5l6 8l7 10l5 11q2 2 5 7t5 8q2 16 2 20q0 6 -5 23h1q-2 4 -14 15l-26 26l-20 5q-20 7 -20 24q0 16 18 26q3 0 5 1t7 2.5t8 1.5q3 1 6 6q6 6 13 17l-1 -1
q12 25 12 37q0 22 -16 35q-15 12 -32 12q-24 0 -32 -7q-12 -7 -18 -7q-19 0 -19 21q0 26 34 42q21 12 39 12t49 -16t44 -27q28 -28 28 -51v-3l-1 -15v-1q0 -43 -45 -77q-3 -3 -4 -3q2 -2 4 -3q54 -45 54 -96q0 -40 -3 -51q-9 -36 -34 -51q-12 -6 -26 -11l-7 -4l-17 -7
l-10 -5q-45 -5 -48 -5q-21 1 -59 37q-32 30 -32 61q0 43 32 43z" />
    <glyph glyph-name="acute" unicode="&#xb4;" horiz-adv-x="439" 
d="M298 443q35 0 35 -32q0 -22 -20 -35q-16 -10 -29 -11l-14 -1q-1 0 -8.5 -2t-13.5 -4h-1q-1 -1 -2 -1l3 1q-5 -4 -11 -4h2q-2 0 -5.5 -1.5t-9.5 -4t-11 -4.5q-2 -3 -7 -3q-17 0 -17 16q0 11 24 25l-1 -1q29 18 44 39q19 23 42 23z" />
    <glyph glyph-name="paragraph" unicode="&#xb6;" horiz-adv-x="499" 
d="M228 -130q-1 0 -4 -0.5t-6 -0.5q-2 0 -6.5 -0.5t-7.5 -0.5q-2 0 -3 -1h1q-4 -1 -13 -1q-24 0 -24 19q0 11 17 23q40 28 40 92v3q0 4 -0.5 16.5t-1 37t-0.5 48.5v32q0 21 2 39l3 18l-2 28l-2 29v-1q-1 4 -1.5 7.5t-1.5 7.5t-1 5q-1 3 -1 8q-2 3 -4 3h-3l-25 -1l-31 3h-6
q-5 0 -25 9q-12 6 -39 22q-3 3 -6.5 6t-5.5 4.5t-3 3.5l-2 1l-9 17l1 -1q-29 35 -32 109v21q0 26 9 47l6 16l-5 54q0 15 85 51q8 4 26 14q2 0 10.5 3t17 5.5t14.5 3.5q16 4 47 4h13q3 0 47 -2h-1l47 3q8 0 53 -3h-1h1h1h-1q32 4 46 4q52 0 52 -34q0 -12 -13 -22
q-16 -12 -19 -22v1q-9 -27 -9 -134v-1q0 -9 1 -21q2 -36 2 -60v-27q0 -50 -3 -83q-1 -3 -1 -11t1 -16q1 -25 1 -84q0 -37 -1 -89v-9q0 -7 4 -30l1 -51v1l2 -16l-1 2q2 -3 4 -8t5 -12q4 -8 19 -29v2q13 -13 13 -26q0 -26 -18 -26h-1l-24 1q-1 -1 -5 -1q-13 -3 -26 -3
q-6 0 -10 1q0 1 -4 1q-10 0 -15 1q-27 4 -36 15q-14 22 -14 59q0 11 1 25q1 7 1 25q0 19 2 40q1 10 3 36q1 4 1 10q0 19 -1 31q-2 28 -2 36q0 30 4 101q1 7 1 15q0 4 -3 37v-1q-1 3 -1.5 10.5t-0.5 10.5l3 32v2l-2 16v100q0 4 -1 9q-3 31 -4 40q0 2 -0.5 6.5t-0.5 6.5
q0 12 -2 50v5q-2 9 0 9q-15 0 -16 -52q0 -13 -1 -22q-2 -20 -2 -24q0 -2 0.5 -12t0.5 -15v-23q0 -9 -1 -23q-2 -28 -2 -42l-1 -43l-1 -36l2 -17l1 -11v-8q-2 -34 -2 -70v-36q0 -10 -3 -93q0 -7 -1.5 -33t-2.5 -41l-1 -8l1 -57q0 -25 -15 -43l1 1q-12 -18 -36 -18h-37z" />
    <glyph glyph-name="periodcentered" unicode="&#xb7;" horiz-adv-x="167" 
d="M77 215v-17q40 0 40 3q1 3 -18 8q12 -2 17 -3h-1q2 -1 5 -1q20 -11 20 -43q0 -22 -11 -30l1 1q-2 -4 -26 -15q-7 -3 -15 -3q-14 0 -36 19q-13 12 -13 43q0 15 11 26.5t26 11.5zM99 209h-2l2 -1q-10 4 -12 4q7 -2 12 -3z" />
    <glyph glyph-name="cedilla" unicode="&#xb8;" horiz-adv-x="430" 
d="M199 -40q10 0 16 -14q2 -3 11 -11l-3 1q12 -4 17 -4t5 7v8l-24 13h2q-10 3 -10 15l1 17v10q0 10 3 14q6 11 21 11q25 0 25 -18v-13l9 -4q10 -4 20 -22q4 -5 4 -13l-3 -18v-13q0 -10 -11 -21q-27 -22 -43 -22q-25 0 -37 6q-10 6 -20 21q-10 10 -10 23q0 9 9.5 18t17.5 9z
" />
    <glyph glyph-name="onesuperior" unicode="&#xb9;" horiz-adv-x="256" 
d="M171 379q0 -1 0.5 -4t0.5 -10v-17l1 -13q0 -11 2 -21l-1 2q0 -2 8 -13q8 -13 8 -21q0 -9 -8.5 -18t-15.5 -9l-30 1q-1 0 -3.5 -0.5t-4.5 -0.5q-4 -1 -13 -1q-30 0 -30 25q0 10 17 41q0 21 1 52l2 19v3q1 11 1 27v9q0 8 -1 15v7q0 11 1 22q1 10 1 53l1 12q-4 28 -4 38
q-2 10 -2 13q-4 2 -6 4t-8 5.5t-9 6.5l3 -1q-9 4 -9 18q0 10 6 16q3 4 23 13v-1l9 3q6 2 9 4q23 11 35 11q23 0 23 -28q0 -16 -1 -27v-67l-6 -107v-61z" />
    <glyph glyph-name="ordmasculine" unicode="&#xba;" horiz-adv-x="276" 
d="M188 247l-4 -2q-22 -4 -29 -4q-53 0 -94 38q-32 32 -32 63v13q0 39 5 46q17 28 30 37q41 30 88 30q26 0 41 -7q29 -11 40 -25v1q3 -4 10.5 -13.5t10.5 -13.5q8 -12 8 -46q0 -33 -19 -71q-11 -19 -37 -35q-14 -8 -18 -11zM132 421q-9 0 -10 -2q-16 -11 -24 -27
q-3 -4 -3 -19v-28q1 -9 6 -21q5 -13 8 -16q5 -6 19 -10q6 -3 16 -9l5 1h-1q18 5 25 12q19 22 19 56q0 3 -7 24v-1q-6 17 -20 33h1q-10 7 -34 7z" />
    <glyph glyph-name="guillemotright" unicode="&#xbb;" horiz-adv-x="310" 
d="M151 352q8 0 25 -13l15 -10q7 -5 23 -33l4 -4q1 -2 6 -8t8 -10l14 -19q8 -4 31 -27l-2 1q18 -13 20 -18v2q5 -7 5 -20q0 -10 -6 -20l-3 -3q-3 -2 -8 -6.5t-10 -9.5q-6 -11 -24 -26q-22 -18 -49 -51l-14 -13q-9 -8 -29 -28q-8 -8 -15 -8q-20 0 -20 21l7 14l3 17
q1 12 16 25q1 0 4 3t5 4l10 18l9 13v-1l11 18l12 13q11 13 11 16l-1 1q-1 2 -4.5 6.5t-6.5 9.5q-13 17 -18 29l-7 13l-7 14l1 -2l-13 15h1q-27 29 -27 54q0 23 23 23zM56 351q16 0 28 -23l30 -30q17 -15 31 -36q9 -12 23 -26q19 -16 19 -44q0 -9 -14 -29q-2 -5 -13 -20
q-2 -2 -26 -23q-21 -29 -24 -32q-4 -4 -7 -6q-2 -2 -14 -9h1q-15 -17 -24 -21h1q-10 -6 -22 -6q-19 0 -19 20q0 7 8 20q2 4 4 7.5t3.5 5.5t1.5 3q7 13 28 40l13 17q24 24 24 35q0 1 -1 3.5t-3.5 8t-4.5 10.5v-1q-11 21 -25 38l1 -1q-11 12 -20 29q-3 1 -4 6q-3 7 -4 9v-1
q-13 22 -13 33q0 23 22 23z" />
    <glyph glyph-name="onequarter" unicode="&#xbc;" horiz-adv-x="651" 
d="M524 160q-2 6 -15 6h-1q-9 0 -19 -1h-46l-27 1q-40 0 -40 27q0 14 26 42q9 9 21 24q28 34 33 37q11 7 18 17l8 7l14 18q4 4 19 21l13 13l-2 -3q2 2 8 10q1 1 3 3.5t4 4.5l8 11l6 7v-1q11 17 26 17q24 0 24 -26v-8q-1 -9 -1 -25q0 -4 1 -13v-24l-1 -57v-11q1 -5 1 -10
q0 -12 -1 -19q-1 -2 -1 -6v-1l10 -9q5 -7 5 -17v-10q-5 -11 -16 -24v-118q0 -42 -30 -42q-23 0 -31 2q-7 1 -14 8.5t-7 12.5v3q1 7 4 45q-3 22 -3 29q0 22 1 36v-1q0 2 0.5 5t0.5 4v7q0 5 1 8l-1 -2q1 1 1 2zM518 684q31 0 31 -24q0 -12 -4 -17l-63 -108v1q-3 -6 -6 -13.5
t-5 -12t-3 -6.5q-13 -23 -23 -37l1 1q-1 -1 -5 -8.5t-10.5 -19.5t-14.5 -25q-4 -10 -20 -35v1l-4.5 -9l-3.5 -7t-2 -3l-15 -17l-1 -2q-1 -2 -3 -7t-4 -9q-3 -10 -8 -20q-37 -70 -42 -83v1q-6 -20 -16 -30l-28 -31l-6 -13q2 2 0 -2q-1 -2 -3 -7q-4 -7 -5 -10l-5 -9
q-8 -8 -22 -36q-2 -6 -21 -31l-8 -11q-1 -2 -4 -6.5t-4 -6.5q-23 -38 -28 -43q-6 -6 -17 -6q-37 0 -37 26q0 5 8 15l-1 -2q0 1 1.5 4l4.5 9t5 11v-1q9 17 22 40v-1q3 4 28 39l15 30l26 44v-1l9 18l7 13q9 14 25 34q12 12 32 61q6 12 20 33l10 20l26 40l-1 -1l15 29
q8 13 15.5 25.5t12.5 21t5 9.5v-1q5 10 12 25q19 41 21 46q2 2 5 7q5 6 7 9l-1 -1q8 16 25 48q16 29 27 42q9 10 28 10zM193 386q0 -1 0.5 -4t0.5 -10v-17l2 -14q0 -11 2 -21l-1 2q0 -2 8 -13q9 -13 9 -21q0 -10 -9 -19t-18 -9l-34 1q-1 0 -3.5 -0.5t-4.5 -0.5q-5 -1 -15 -1
q-35 0 -35 25q0 10 20 42q0 2 2 53l2 20v3q1 10 1 27v9q0 8 -1 15v8q0 11 1 22q1 10 1 54v12q-3 35 -3 40q-2 7 -3 12q-1 1 -3.5 3t-3.5 2q-3 2 -9 5.5t-9 5.5l3 -1q-11 4 -11 19q0 10 7 16q5 5 27 13l-1 -1q2 0 10 4q9 3 11 4q25 11 39 11q26 0 26 -29q0 -16 -1 -27v-69
l-7 -109v-62zM491 258q-9 -15 -22 -32h3q5 0 13 4q6 -1 16.5 -2.5t12.5 -1.5q6 -1 9 -1h2q0 9 3 28q0 2 1 6t1 6v34q-4 -3 -13 -11.5t-12 -11.5q-6 -8 -9 -11q-1 -1 -3 -4t-3 -4z" />
    <glyph glyph-name="onehalf" unicode="&#xbd;" horiz-adv-x="651" 
d="M493 90l-6 -6h6l39 1l25 -3q9 0 18 7q4 4 8.5 7.5t7 5.5t3.5 3l3 4q8 0 17 -10.5t9 -16.5q0 -7 -3 -22q1 -1 0 -4l-2 -4q-2 -8 -3 -18q-6 -35 -31 -35h-17q-4 0 -9.5 0.5t-7.5 0.5h-24q-20 0 -33 -1h-16q-16 0 -28 1l-33 -1h-3q-23 0 -23 24q0 29 42 74l-1 -1q7 11 22 27
l11 15l9 11q26 31 38 44q11 12 14 19q29 50 29 87q0 2 -8 28q-1 4 -24 18l5 -1h-1l-2 1q-8 2 -9 3l-19 -4q-27 -5 -45 -17q-4 -3 -12 -3q-19 0 -19 19q0 11 21 40q27 35 70 35q23 0 41 -2q2 -1 27 -12q0 -1 -1 -1q3 0 6 -1q41 -21 48 -55v1q3 -10 3 -43v-7q0 -30 -12 -58
q-5 -10 -23 -32q-23 -23 -44 -46l-35 -38l1 1q-3 -3 -10 -11.5t-9 -10.5q-6 -8 -11 -13h1zM518 684q32 0 32 -24q0 -11 -5 -17l-62 -108v1q-11 -26 -15 -32q-15 -26 -22 -37l1 1q-1 -2 -4.5 -8.5t-11 -19.5t-14.5 -25q-3 -5 -9.5 -16.5t-10.5 -18.5v1q-10 -18 -11 -19
l-14 -17l-1 -2q-1 -2 -3 -7t-4 -9q-4 -10 -9 -20q-32 -61 -41 -83v1q-6 -19 -17 -30l-28 -31l-6 -13q2 2 0 -3q-2 -6 -8 -16l-5 -9q-9 -9 -21 -36q-15 -23 -21 -31l-9 -11q-1 -2 -4 -6.5t-4 -6.5q-19 -35 -28 -43q-6 -6 -17 -6q-37 0 -37 26q0 5 8 15l-1 -2q0 1 1.5 4l4.5 9
t5 11v-1q10 20 23 40v-1q3 8 28 39l14 30l26 44v-1l9 18l8 13q7 15 25 34q12 13 31 61q7 15 21 33l9 20l26 40l-1 -1l15 29q8 12 34 56v-1q5 10 11 25q3 6 10.5 22t11.5 24q0 1 1 2q1 2 3 5q5 6 7 9l-1 -1q9 16 25 48q16 26 27 42q10 10 28 10zM193 386q0 -1 0.5 -4t0.5 -10
v-17l2 -14q0 -11 2 -21l-1 2q0 -3 9 -13q8 -14 8 -21q0 -10 -9 -19t-18 -9l-34 1l-3 -1h-5q-5 -1 -15 -1q-34 0 -34 25q0 11 19 42q0 2 2 53l2 20v3q1 10 1 27v9q0 8 -1 15v8q0 11 1 22q1 10 1 54l1 12q-4 31 -4 40q-2 7 -3 12q-1 1 -3.5 3t-3.5 2q-8 5 -18 11l3 -1
q-11 4 -11 19q0 10 7 16q5 5 27 13l-1 -1q4 0 10 4q9 3 11 4q25 11 40 11q25 0 25 -29q0 -16 -1 -27v-69l-7 -109v-62z" />
    <glyph glyph-name="threequarters" unicode="&#xbe;" horiz-adv-x="653" 
d="M59 390q18 0 36 -21q11 -10 11 -28l-2 -26q0 -1 10 -7q12 -8 20 -8q4 2 15 5v-1q1 0 4 0.5t4 1.5l6 7l6 6l6 8l8 10l5 11l10 16q2 14 2 20t-5 23h1q-2 4 -14 16q-18 16 -28 26l-20 5q-22 7 -22 24q0 16 20 27q2 0 4 1q12 2 16 4q4 1 7 6q7 7 13 18l-1 -1q13 26 13 37
q0 22 -18 36q-14 11 -32 11q-25 0 -34 -6q-14 -7 -20 -7q-19 0 -19 21q0 25 36 43q21 12 40 12t52 -16q36 -19 46 -28q29 -29 29 -52v-3l-1 -15v-1q0 -44 -47 -79q-3 -3 -4 -3q2 -2 4 -3q57 -45 57 -97q0 -41 -3 -52q-11 -38 -36 -52q-12 -6 -27 -12l-8 -4l-17 -6l-11 -5
q-42 -6 -50 -6q-21 1 -62 38q-34 31 -34 62q0 44 34 44zM525 161q-2 5 -14 5h-1q-9 0 -19 -1h-46l-27 1q-41 0 -41 27q0 17 17 31q1 1 3.5 4t4.5 5q1 2 24 27l-1 -1l7 9q16 14 45 45l7 7l14 18q4 4 19 21q7 9 10 11q6 4 16 17l8 11l6 7v-1q11 17 26 17q25 0 25 -26
q0 -9 -1 -22v-11q0 -4 1 -13v-24l-1 -57v-11q1 -5 1 -10q0 -12 -1 -19q-1 -2 -1 -6q0 -1 -1 -1l10 -9q5 -7 5 -17v-10q-5 -11 -16 -24v-118q0 -42 -30 -42q-23 0 -31 2q-7 1 -14.5 8.5t-7.5 12.5v3q3 17 5 45q-4 20 -4 29h19q-2 0 -5.5 4.5t-7.5 15.5t-4 24v13zM520 684
q31 0 31 -24q0 -10 -4 -17l-63 -108v1q-9 -22 -15 -33v1q-18 -31 -22 -37q-1 -2 -7 -12.5l-18 -31.5t-24 -43v1q-10 -18 -11 -19l-15 -17q0 -3 -7 -18q-4 -10 -9 -20q-37 -70 -42 -83v1q-4 -15 -16 -30l-28 -31l-6 -13v-2l-1 -1q-10 -21 -12 -25q-7 -10 -13 -18
q-5 -7 -7 -16q-16 -24 -23 -33l-9 -11q-6 -11 -7 -13q-21 -35 -28 -43q-6 -6 -18 -6q-37 0 -37 26q0 5 8 15l-1 -2l1 2q1 3 2.5 6t4 7.5t4.5 8.5v-1q13 26 22 40v-1q3 4 28 39l15 30l26 44v-1l8 18l8 13q9 14 25 34q12 12 32 61q6 12 20 33l10 20l26 40l-1 -1l15 29
q8 12 34 56v-1q5 10 11 25q3 6 10.5 22t11.5 24q2 2 4 7q5 6 7 9l-1 -1q9 16 25 48q16 26 27 42q10 10 29 10zM492 258q-7 -14 -21 -32h3q5 0 13 4q6 -1 16.5 -2.5t12.5 -1.5q5 -1 8 -1h3q0 9 3 28q0 2 1 6t1 6v34q-5 -3 -13.5 -12t-11.5 -11q-6 -8 -9 -11q-5 -5 -7 -8z" />
    <glyph glyph-name="questiondown" unicode="&#xbf;" horiz-adv-x="344" 
d="M211 237q22 0 22 -25q0 -4 -6 -63q0 -12 -10 -38q-3 -9 -5 -19l-1 -3q-1 -3 -2 -8t-2 -8q-7 -21 -19 -53l-5 -14l-15 -41l-7 -15v1l-7 -20q-14 -42 -14 -45q0 -30 7 -55l3 -15q6 -30 25 -49q12 -12 36 -12t41 14q11 8 11 30q0 3 -2 9q-2 2 -3 4t-13 18q-5 7 -5 25
q0 52 40 52q12 0 21 -5q8 -4 19 -21l-1 1q6 -6 8 -10l-1 1q11 -17 11 -31q0 -17 -7 -42q-2 -10 -18 -38l-1 -1q-1 -1 -2 -3t-3 -4l-4 -4t-4 -5q-24 -25 -67 -38q-20 -5 -33 -5q-15 0 -24 3q-7 0 -15 2q-3 1 -5.5 1h-4.5q-20 7 -39 26q-40 43 -47 55q-19 31 -19 115
q0 14 12 45l10 24l21 33l-1 -1q2 4 8.5 14t9.5 15l9 15q11 11 21 26q8 14 24 44l10 17v-1q9 24 20 57l-1 -1q1 3 1 17q0 29 23 29zM198 403q12 0 35 -20q19 -15 19 -49q0 -49 -43 -49q-7 0 -27 9l1 -1q-29 7 -33 15v-1q-11 12 -11 39t14 37q6 5 30 16q7 4 15 4z" />
    <glyph glyph-name="Agrave" unicode="&#xc0;" horiz-adv-x="516" 
d="M431 -2q-5 0 -36 6q-24 -8 -37 -8q-25 0 -25 20q0 12 17 25q25 22 25 46q0 13 -9 41q-2 4 -3 8q-2 7 -14 35v-1q-6 10 -16 62l1 -1q-10 30 -39 30l-3 1h-3q-12 2 -28 7q-17 5 -33 5q-29 0 -42 -5q-12 -4 -21 -37v1q-7 -27 -15 -39h1q-11 -19 -16 -36q-2 -7 -3 -12
q-1 -1 -2 -5t-1 -5l1 1q0 -3 -0.5 -8.5t-1.5 -8.5q-3 -19 -3 -21q0 -15 3 -23h1l1 -1q15 -15 30 -32q14 -14 14 -22q0 -22 -33 -22q-14 0 -32 1h-34l-42 -1q-33 0 -33 24q0 14 9 20l18 15q5 3 16 32v-1q2 7 18 26q1 1 10 38q1 3 4 9t7 17t8 19v-1q2 7 7 19l16 43
q47 129 49 136l-1 -2q0 1 1.5 4.5t4 9.5t4.5 11q3 11 21 55q25 64 28 74q15 52 22 99q8 45 33 45q13 0 22 -23q1 -2 4.5 -12t11.5 -34t16 -47q3 -7 7 -16q1 -2 4.5 -9.5t5.5 -11.5q1 -6 6 -26q2 -6 6 -21h-1q5 -16 6 -22q5 -17 16 -36l27 -73l9 -32v1l16 -54q3 -9 10.5 -35
t12.5 -41l-1 1q8 -18 23 -70q13 -44 29 -63q6 -3 23 -17q10 -8 10 -22q0 -21 -26 -26v1q-6 -2 -30 -2q-4 0 -12.5 -0.5t-13.5 -0.5zM208 833q7 0 26 -12l6 -5q3 -3 13.5 -15.5t18.5 -21.5q5 -5 10 -9q7 -7 12 -11q21 -17 21 -35q0 -20 -20 -20q-4 0 -23 9q-10 4 -14 6l1 -1
l-32 10l-21 7l-4 2v-1q-1 0 -4 1.5t-8.5 3.5t-11.5 5q-17 12 -17 32t14.5 37.5t32.5 17.5zM279 422q-12 38 -18 44l-7 -13q-16 -27 -20 -34v2q-13 -44 -13 -59q0 -5 2 -13q5 -10 32 -15h-1q13 -3 15 -4v1q13 -4 19 -4q3 0 3 4q0 49 -12 91zM399 5q-2 0 -3 -1q1 0 3 1z" />
    <glyph glyph-name="Aacute" unicode="&#xc1;" horiz-adv-x="516" 
d="M431 -2q-5 0 -36 6q-24 -8 -37 -8q-25 0 -25 20q0 12 17 25q25 22 25 46q0 13 -9 41q-2 4 -3 8q-2 7 -14 35v-1q-6 10 -16 62l1 -1q-10 30 -39 30l-3 1h-3q-12 2 -28 7q-17 5 -33 5q-29 0 -42 -5q-12 -4 -21 -37v1q-7 -27 -15 -39h1q-11 -19 -16 -36q-2 -7 -3 -12
q-1 -1 -2 -5t-1 -5l1 1q0 -3 -0.5 -8.5t-1.5 -8.5q-3 -19 -3 -21q0 -15 3 -23h1l1 -1q15 -15 30 -32q14 -14 14 -22q0 -22 -33 -22q-14 0 -32 1h-34l-42 -1q-33 0 -33 24q0 14 9 20l18 15q5 3 16 32v-1q2 7 18 26q1 1 10 38q1 3 4 9t7 17t8 19v-1q2 7 7 19l16 43
q23 61 48 133q4 11 10 26q3 11 21 55q25 64 28 74q15 52 22 99q7 44 33 44q13 0 22 -22q1 -2 4.5 -12t11.5 -34t16 -47q3 -7 7 -16q1 -2 4.5 -9.5t5.5 -11.5q1 -6 6 -26q2 -6 6 -21h-1q5 -16 6 -22q5 -17 16 -36l27 -73l9 -32v1l16 -54q3 -9 10.5 -35t12.5 -41l-1 1
q8 -18 23 -70q13 -44 29 -63q6 -3 23 -17q10 -8 10 -22q0 -21 -26 -26v1q-6 -2 -30 -2q-4 0 -12.5 -0.5t-13.5 -0.5zM350 830q39 0 39 -39q0 -26 -23 -42q-14 -12 -30 -14l-17 -2q-1 0 -3 -1q-9 -2 -18 -5q-2 -1 -10 -4q-3 -1 -5 -2q-1 0 -2.5 -0.5t-2.5 -1.5
q-28 -13 -30 -13q-17 0 -17 18q0 12 25 30t49 48q19 28 45 28zM279 422q-12 38 -18 44l-7 -13q-16 -27 -20 -34v2q-13 -44 -13 -59q0 -5 2 -13q5 -10 32 -15h-1q13 -3 15 -4v1q13 -4 19 -4q3 0 3 4q0 49 -12 91zM399 5q-2 0 -3 -1q1 0 3 1z" />
    <glyph glyph-name="Acircumflex" unicode="&#xc2;" horiz-adv-x="516" 
d="M431 -2q-5 0 -36 6q-24 -8 -37 -8q-25 0 -25 20q0 12 17 25q25 22 25 46q0 13 -9 41q-2 4 -3 8q-2 7 -14 35v-1q-6 10 -16 63l1 -1q-11 29 -39 29l-3 1h-3q-12 2 -28 7q-15 6 -33 6q-30 0 -42 -6q-11 -4 -21 -36q-7 -27 -15 -39h1q-11 -19 -16 -36q-2 -7 -3 -11v1l-3 -12
l1 1q0 -3 -0.5 -8.5t-1.5 -8.5q-3 -19 -3 -21q0 -15 3 -23h1l1 -1q15 -15 30 -32q14 -14 14 -22q0 -22 -33 -22q-14 0 -32 1h-34l-42 -1q-33 0 -33 24q0 14 9 20l18 15q5 3 16 32v-1q2 7 18 26q1 1 10 38q1 3 4 9t7 17t8 19v-1q2 7 7 19l16 43q16 44 48 134q0 1 1.5 4.5
t4 9.5t4.5 11q3 11 21 55q25 64 28 74q15 50 22 99q8 45 33 45q13 0 22 -23q1 -2 4.5 -12t11.5 -34t16 -47q3 -6 7 -16q1 -2 4.5 -9.5t5.5 -11.5l6 -26q2 -6 6 -21h-1q5 -12 6 -22q5 -17 16 -36l27 -73l9 -32v1l16 -54q3 -8 6 -19t8 -28t9 -29l-1 1q8 -18 23 -70
q13 -44 29 -63q6 -3 23 -17q10 -8 10 -22q0 -21 -26 -26v1q-6 -2 -30 -2q-4 0 -12.5 -0.5t-13.5 -0.5zM280 842q6 0 18 -5l2 -3l3 -3q2 -2 10 -14l17 -25l9 -13l4 -8t5 -9l3.5 -7t4.5 -8l4 -8t3 -6.5t1 -3.5l-1 2q6 -7 6 -16q0 -17 -18 -17q-12 0 -54 35l-21 33
q-7 0 -15 -17q-10 -20 -23 -28q-11 -9 -19 -16q-10 -10 -21 -10q-17 0 -17 19q0 3 16 27h-1l9 18l16 23l-1 -1l7 11l16 21l2 4q5 13 9 17q6 8 26 8zM279 422q-12 38 -18 44l-7 -13q-9 -13 -20 -34v2q-13 -44 -13 -59q0 -5 2 -13q5 -10 32 -15h-1q13 -3 15 -4v1q13 -4 19 -4
q3 0 3 4q0 49 -12 91zM399 5q-2 0 -3 -1q1 0 3 1z" />
    <glyph glyph-name="Atilde" unicode="&#xc3;" horiz-adv-x="516" 
d="M431 -2q-5 0 -36 6q-24 -8 -37 -8q-25 0 -25 20q0 12 17 25q25 22 25 46q0 13 -9 41q-2 4 -3 8q-2 7 -14 35v-1q-6 10 -16 62l1 -1q-10 30 -39 30l-3 1h-3q-9 1 -28 6q-15 6 -33 6q-30 0 -42 -6q-12 -3 -21 -36v1q-7 -27 -15 -39h1q-11 -19 -16 -36q-2 -7 -3 -12v1
q0 -1 -0.5 -3t-1.5 -4.5t-1 -3.5l1 1q0 -3 -0.5 -8.5t-1.5 -8.5q-3 -19 -3 -21q0 -15 4 -23l1 -1q15 -15 30 -32q14 -14 14 -22q0 -22 -33 -22q-14 0 -32 1h-34l-42 -1q-33 0 -33 24q0 14 9 20l18 15q5 3 16 32v-1q2 7 18 26q1 1 10 38q1 3 4 9t7 17t8 19v-1q2 7 7 19l16 43
q23 61 48 133q4 11 10 26q3 11 21 55q25 64 28 74q15 52 22 98q7 45 33 45q13 0 22 -22q1 -2 4.5 -12t11.5 -34t16 -47q3 -7 7 -17l10 -20q1 -6 6 -26q2 -6 6 -21h-1q5 -15 6 -22q5 -17 16 -36l27 -73l9 -32v1l16 -54q3 -9 10.5 -35t12.5 -41l-1 1q10 -22 23 -70
q13 -44 29 -63q6 -3 23 -17q10 -8 10 -22q0 -21 -26 -26v1q-6 -2 -30 -2q-4 0 -12.5 -0.5t-13.5 -0.5zM238 821q9 0 13 -1q9 -3 18 -8l7 -4l20 -6q30 -17 36 -17q15 0 33 18q4 1 7 4q19 0 19 -17q0 -11 -8 -19q-2 -4 -4 -6q-1 -1 -9 -11q-25 -39 -55 -39q-14 0 -28 5
q-18 7 -29 12l1 -1l-15 5q-28 14 -42 14q-3 0 -8 -7l1 1q-12 -20 -20 -20q-19 0 -19 18q0 3 18 31l10 12l-1 -1q7 11 24 27q16 10 31 10zM279 422q-12 38 -18 44l-7 -13q-16 -27 -20 -34v2q-13 -45 -13 -59q0 -7 2 -13q5 -10 32 -15h-1q13 -3 15 -4v1q13 -4 19 -4q3 0 3 4
q0 47 -12 91zM399 5q-2 0 -3 -1q1 0 3 1z" />
    <glyph glyph-name="Adieresis" unicode="&#xc4;" horiz-adv-x="516" 
d="M431 -2q-5 0 -36 6q-24 -8 -37 -8q-25 0 -25 20q0 12 17 25q25 22 25 46q0 13 -9 41q-2 4 -3 8q-2 7 -14 35v-1q-6 10 -16 62l1 -1q-10 30 -39 30l-3 1h-3q-9 1 -28 6q-15 6 -33 6q-30 0 -42 -6q-12 -3 -21 -36v1q-7 -27 -15 -39h1q-11 -19 -16 -36q-2 -7 -3 -12v1
q0 -1 -0.5 -3t-1.5 -4.5t-1 -3.5l1 1q0 -3 -0.5 -8.5t-1.5 -8.5q-3 -19 -3 -21q0 -15 3 -23l2 -1q15 -15 30 -32q14 -14 14 -22q0 -22 -33 -22q-14 0 -32 1h-34l-42 -1q-33 0 -33 24q0 14 9 20l18 15q5 3 16 32v-1q2 7 18 26q1 1 10 38q1 3 4 9t7 17t8 19v-1q2 7 7 19l16 43
q23 61 48 133q4 11 10 26q3 11 21 55q25 64 28 74q15 52 22 98q7 45 33 45q13 0 22 -22q1 -2 4.5 -12t11.5 -34t16 -47q3 -7 7 -17l10 -20q1 -6 6 -26q2 -6 6 -21h-1q5 -15 6 -22q5 -17 16 -36l27 -73l9 -32v1l16 -54q3 -9 10.5 -35t12.5 -41l-1 1q10 -22 23 -70
q13 -44 29 -63q6 -3 23 -17q10 -8 10 -22q0 -21 -26 -26v1q-6 -2 -30 -2q-4 0 -12.5 -0.5t-13.5 -0.5zM186 821q11 0 36 -17q12 -8 15 -19q0 -8 1 -16v1q3 -12 3 -17q0 -9 -7 -20v1q-8 -20 -17 -25.5t-30 -5.5q-11 0 -30 12v-1q-26 15 -26 45q0 17 16 36q24 26 39 26z
M357 813h6q20 0 32 -9q22 -13 22 -47q0 -13 -5 -27l1 1q-1 -11 -21 -19q-17 -10 -29 -10q-46 0 -46 63q0 18 12 33t28 15zM279 422q-12 38 -18 44l-7 -13q-16 -27 -20 -34v2q-13 -45 -13 -59q0 -7 2 -13q5 -10 32 -15h-1q13 -3 15 -4v1q13 -4 19 -4q3 0 3 4q0 47 -12 91z
M399 5q-2 0 -3 -1q1 0 3 1z" />
    <glyph glyph-name="Aring" unicode="&#xc5;" horiz-adv-x="516" 
d="M431 -2q-5 0 -36 6q-24 -8 -37 -8q-25 0 -25 20q0 12 17 25q25 22 25 46q0 13 -9 41q-2 4 -3 8q-2 7 -14 35v-1q-6 10 -16 63l1 -1q-11 29 -39 29l-3 1h-3q-12 2 -28 7q-15 6 -33 6q-30 0 -42 -6q-11 -4 -21 -36v1q-7 -28 -15 -40h1q-11 -19 -16 -36q-2 -7 -3 -11v1
l-3 -12l1 1q0 -3 -0.5 -8.5t-1.5 -8.5q-3 -19 -3 -21q0 -15 3 -23h1l1 -1q15 -15 30 -32q14 -14 14 -22q0 -22 -33 -22q-14 0 -32 1h-34l-42 -1q-33 0 -33 24q0 14 9 20l18 15q5 3 16 32v-1q2 7 18 26q1 1 10 38q1 3 4 9t7 17t8 19v-1q2 7 7 19l16 43q16 44 48 134
q0 1 1.5 4.5t4 9.5t4.5 11q3 11 21 55q25 64 28 74q15 50 22 99q8 45 33 45q13 0 22 -23q1 -2 4.5 -12t11.5 -34t16 -47q3 -6 7 -16q1 -2 4.5 -9.5t5.5 -11.5l6 -26q2 -6 6 -21h-1q5 -12 6 -22q5 -17 16 -36l27 -72l9 -33v1l16 -53q3 -10 11 -36t12 -41l-1 1q8 -18 23 -70
q13 -44 29 -63q6 -3 23 -17q10 -8 10 -22q0 -21 -26 -26v1q-6 -2 -30 -2q-4 0 -12.5 -0.5t-13.5 -0.5zM270 847h2q9 0 27 -9q21 -10 26 -16q10 -12 14 -28l3 -12q0 -24 -9 -40q-23 -39 -65 -39q-63 0 -63 80q0 28 40 52h-1q14 10 26 12zM279 422q-12 38 -18 44l-7 -13
q-9 -13 -20 -34v2q-13 -44 -13 -59q0 -5 2 -13q5 -10 32 -15h-1q13 -3 15 -4v1q13 -4 19 -4q3 0 3 4q0 49 -12 91zM269 795q-13 0 -13 -18q0 -12 10 -20h11q7 1 11 10q3 8 3 10q0 8 -10 15v-1q-8 4 -12 4zM399 5q-2 0 -3 -1q1 0 3 1z" />
    <glyph glyph-name="AE" unicode="&#xc6;" horiz-adv-x="784" 
d="M677 1q-2 0 -5 0.5t-5 1.5q-24 -4 -30 -4h-6q-2 0 -42 2l-72 -3q-11 0 -18 1q-4 0 -9 0.5t-7 0.5h-7q-33 0 -69 -1l-43 -2q-25 0 -25 20q0 15 12 24q0 6 8 6l6 3q6 2 10 3q16 19 19 25l-1 -2q2 9 5 32q2 20 2 28v17q0 19 -1 31q0 1 -0.5 3t-0.5 4l-1 8q0 9 -1 12
q-2 41 -15 41h-44q-9 0 -27 9q-22 11 -36 11q-24 0 -27 -8l-5 -7l-6 -8l-9 -18q-12 -17 -52 -100q-15 -30 -18 -37v-7v-10.5v-11.5q0 -12 13 -15q28 -12 28 -33q0 -20 -22 -20q-6 0 -14 2l-5 2l-14 -1h-8h-1q-3 -2 -8 -2q-11 0 -17 1q-3 1 -7 1h-69q-33 2 -33 18q0 12 8 21
l2 1q1 1 4.5 3.5t6 4.5t6.5 5q4 2 7 5q9 4 24 27q16 18 21 26l-1 -1q0 1 5 9t8 15q5 13 18 37v-1q4 8 25 35v-1q19 27 23 33h-1l14 24l10 16l-1 -1q5 9 43 70q5 6 13 17t13 17v-1l25 50q2 7 24 36q11 16 25 42l25 38l-1 -1l13 23q13 28 13 37q0 4 -10 12q-19 13 -19 24
q0 30 33 30q9 0 18 -1h8q14 0 27 1q3 0 10.5 0.5t11.5 0.5q10 0 23 1h10q3 0 8.5 0.5t7.5 0.5q25 0 44 -5q8 -3 10 -3q7 1 20 3l-1 -1q4 2 16 2t24 1q10 1 25 1q24 0 49 -6h-1l2 -1h2q2 0 12 2q12 2 19 2q28 0 31 -24l2 -32q1 -5 1 -8q0 -2 0.5 -5t0.5 -5q0 -3 -8.5 -9.5
t-11.5 -7.5h19q0 -11 5 -39q2 -14 2 -20q0 -27 -20 -27l-9 5q-9 5 -16 10t-22 40l-9 15q-7 11 -9 13l-4 4q-8 8 -23 14l2 -1l-15 2l-15 1q-6 0 -17 4h1q-27 9 -45 9q-35 0 -38 -16q-1 -2 -1 -9q0 -1 -0.5 -5.5t-0.5 -6.5l-2 -14v-9q-5 -27 -5 -49v-43v-31v-9q0 -37 24 -37
q11 0 21 7q31 20 47 39q12 14 23 14q14 0 22 -18q1 -7 2 -25l1 -19v-13q0 -11 -2 -41l-2 -18q0 -6 1 -9q0 -2 0.5 -5.5t0.5 -4.5l-1 -6q3 -9 3 -12q0 -10 -9 -28v1q-3 -12 -16 -12q-4 0 -7 1l-5 1l-12 16l-11 13l-7 22l-17 16q-6 9 -10 10q-4 4 -23 4q-12 0 -14 -5l1 -44
q-2 -15 -7 -33q-5 -22 -5 -34q0 -6 1 -11q0 -1 0.5 -6t0.5 -7l-1 -24q0 -21 -1 -33q0 -2 -0.5 -7t-0.5 -6l-2 -12v-3q0 -23 50 -24q32 -4 41 -4q6 0 33 8q15 4 18 7l17 16q7 4 12.5 8t8 6t3.5 2q2 6 6 14q2 4 7 17.5t9 22.5v-1q6 21 27 21t21 -30q0 -69 -4 -92v1l-3 -40
q-7 -26 -32 -26q-5 0 -46 9zM409 520l1 1v2q-3 -1 -24 -25q-14 -15 -24 -36v1l-2 -3q-1 -1 -4 -8t-11 -23t-15 -31q-1 -1 -3.5 -4.5l-7.5 -10.5t-11 -15q-10 -11 -10 -19q0 -1 2 -3q8 -1 23 -4h-1q1 -1 4 -1q29 0 35 -2v1q11 -4 15 -4l15 -4q11 0 11 15v40q0 27 2 83
q2 16 2 18q0 4 2 18q1 6 1 14z" />
    <glyph glyph-name="Ccedilla" unicode="&#xc7;" horiz-adv-x="613" 
d="M388 -18q-13 0 -13 -3l19 -9l-2 1q4 -1 15.5 -17.5t9.5 -20.5l-4 -20l1 -6v-7q0 -15 -13 -25q-27 -24 -48 -24q-27 0 -41 6q-11 5 -23 23q-11 11 -11 26q0 9 9.5 19.5t19.5 10.5q11 0 26 -28q1 -3 21 -3q7 0 7 7v10l-29 15q-9 5 -9 18q0 1 0.5 6t0.5 7q1 5 1 11q0 3 -1 6
q0 -1 -11 -1q-19 0 -51 18q-18 10 -55 35l-9 6q-44 32 -65 55q-20 21 -61 92q-17 34 -26 66q-4 15 -4 87q0 61 6 91q10 51 41 89q5 6 19 23q1 1 2 3l2 2l25 42q14 23 89 58q65 28 69 29q38 11 73 11q93 0 179 -52q9 -6 35 -16q18 -7 19 -25q3 -24 3 -66q0 -1 -0.5 -5
t-0.5 -7q-1 -5 -1 -13v-30q0 -20 -20 -20q-13 0 -22 18l-1 1q-1 2 -1.5 4t-1.5 4q-4 6 -7 14q-2 6 -8 16q-3 6 -8 14q-3 5 -3 6q-8 12 -14 16l-32 22q-25 20 -51 37l1 -1q-20 4 -45 8q-27 5 -34 5q-12 0 -26 -8q-26 -6 -61 -36q-27 -15 -29 -17q-28 -32 -43 -62
q-21 -48 -21 -57v-45q0 -3 -1 -7v-4l-1 -3q-10 -31 -10 -37q0 -2 2 -8q2 -16 2 -36v-6q0 -3 -0.5 -8t-0.5 -7q-1 -6 -1 -10v-4l2 -14v-37q0 -9 20 -51q16 -30 29 -44q40 -43 77 -55v1q26 -7 49 -7l48 1q33 0 43 1q3 1 7 1q1 0 3 0.5t3 0.5q16 0 26 5v-1q19 13 40 38h-1
q1 2 6 10t11 18t13 20q6 8 7 15v-2v2q1 2 1 3q5 31 27 31q24 0 24 -32q0 -20 -1 -33q0 -3 -0.5 -9.5t-0.5 -10.5v-28q-2 -30 -4 -38v1q-3 -9 -15 -17l-15 -8l1 1l-4 -3q-26 -16 -41 -21h1l-28 -9l1 1q-38 -15 -58 -15h-3z" />
    <glyph glyph-name="Egrave" unicode="&#xc8;" horiz-adv-x="473" 
d="M77 674l21 -1q1 0 8 0.5t12 0.5q4 0 13 0.5t16 0.5q8 0 21 1h11q3 0 8.5 0.5t7.5 0.5q24 0 43 -5q8 -3 10 -3q7 1 19 3l-1 -1q4 2 15 2q12 0 24 1q10 1 24 1q23 0 48 -6l2 -1h3l-3 -1q11 2 19 4l2 1h4h6q29 0 32 -24q1 -4 3 -38v-15v-16v-10q1 -3 2 -11.5t2 -15.5
q0 -8 1 -11q1 -5 1 -12q0 -26 -20 -26l-24 16q-6 5 -22 40l-8 15q-2 5 -9 13l-4 4q-8 8 -22 14v-1q-6 1 -31 3q-1 1 -7 3h-3l-2 1q-27 9 -44 9q-37 0 -38 -16v-9q0 -1 -0.5 -5.5t-0.5 -6.5l-2 -14v-9q-6 -34 -6 -49v-3q0 -2 0.5 -17t0.5 -24q0 -19 -1 -40q0 -37 23 -37
q12 0 22 7q31 21 46 39q10 15 22 15q13 0 21 -19v-11q0 -2 0.5 -6.5t0.5 -6.5l2 -19v-14q0 -10 -2 -42l-1 -14q0 -10 1 -23q0 -5 2 -13v-4q0 -10 -8 -29v1q-3 -11 -16 -11q-10 0 -23 16l-11 15l-8 21l-16 17q-4 6 -8 10t-24 4q-12 0 -14 -5l1 -19q0 -3 -0.5 -10.5
t-0.5 -12.5q0 -19 -4 -35q-6 -28 -6 -37t1 -20l-1 -27q0 -20 -1 -33q0 -2 -0.5 -6.5t-0.5 -5.5l-2 -12v-3q0 -24 48 -24h3q3 0 14 -1l25 -3q2 0 32 7q16 4 17 7l20 19q21 14 22 17l-1 -2q6 13 21 53v-1q6 21 25 21q22 0 22 -31q0 -70 -4 -91v1l-2 -40q-6 -27 -32 -27
q-6 0 -45 9q-2 0 -4.5 0.5t-4.5 1.5q-24 -4 -30 -4h-6q-2 0 -42 2l-70 -3q-1 0 -7 0.5t-9 0.5q-7 1 -17 1h-6q-32 0 -68 -1l-41 -2q-26 0 -26 20q0 15 12 24q0 6 7 6q4 1 16 7q16 17 19 24l-1 -2q3 11 4 32q1 11 3 31q-1 5 -1 17v53q-1 11 -1 22l1 9v7q0 18 5.5 38t10.5 32
t7 14l-18 -1q-1 9 -2 29v-1q-1 6 -1 22t1 23v27l2 42q2 36 5 52l-6 28q-7 31 -10 37q-11 17 -42 37q-8 5 -8 18q0 30 37 30zM194 833q6 0 25 -12l6 -5v1q2 -2 7 -8.5t11 -14t14 -15.5q1 0 2 -1.5t3.5 -3.5t4.5 -4q7 -7 12 -11q21 -18 21 -35q0 -20 -21 -20q-3 0 -22 9
q-10 4 -14 6l1 -1l-32 10l-20 8q-3 0 -5 1l1 -1q-8 3 -24 10q-17 12 -17 32t14.5 37.5t32.5 17.5z" />
    <glyph glyph-name="Eacute" unicode="&#xc9;" horiz-adv-x="473" 
d="M77 674l21 -1q1 0 8 0.5t12 0.5q4 0 13 0.5t16 0.5q8 0 21 1h11q3 0 8.5 0.5t7.5 0.5q24 0 43 -5q8 -3 10 -3q7 1 19 3l-1 -1q4 2 15 2q12 0 24 1q10 1 24 1q23 0 48 -6l2 -1h3l-3 -1q11 2 19 4l2 1h4h6q29 0 32 -24q1 -4 3 -38v-15v-16v-10q1 -3 2 -11.5t2 -15.5
q0 -8 1 -11q1 -5 1 -12q0 -26 -20 -26l-24 16q-7 7 -22 40l-8 15q-7 11 -9 13l-4 4q-8 8 -22 14v-1q-6 1 -31 3q-1 1 -7 3h-3l-2 1q-27 9 -44 9q-37 0 -38 -16v-9q0 -1 -0.5 -5.5t-0.5 -6.5l-2 -14v-9q-6 -34 -6 -49v-3q0 -2 0.5 -17t0.5 -24q0 -19 -1 -40q0 -37 23 -37
q12 0 22 7q31 21 46 39q9 14 22 14t21 -18v-11q0 -2 0.5 -6.5t0.5 -6.5l2 -19v-14q0 -10 -2 -42l-1 -14q0 -10 1 -23q0 -5 2 -13v-4q0 -10 -8 -29v1q-3 -11 -16 -11q-10 0 -23 16l-11 15l-8 21l-16 17q-4 6 -8 10t-24 4q-12 0 -14 -5l1 -19q0 -3 -0.5 -10.5t-0.5 -12.5
q0 -19 -4 -36q-6 -26 -6 -36q0 -9 1 -20l-1 -27q0 -20 -1 -33q0 -2 -0.5 -6.5t-0.5 -5.5l-2 -12v-3q0 -24 48 -24h3q36 -4 41 -4q4 0 30 7q16 4 17 7l20 19q21 14 22 17l-1 -2q6 13 21 53v-1q6 21 25 21q22 0 22 -31q0 -70 -4 -91v1l-2 -40q-6 -27 -32 -27q-6 0 -45 9
q-2 0 -4.5 0.5t-4.5 1.5q-24 -4 -30 -4h-6q-2 0 -42 2l-70 -3q-1 0 -7 0.5t-9 0.5q-7 1 -17 1h-6q-32 0 -68 -1l-41 -2q-26 0 -26 20q0 15 12 24q0 6 7 6q4 1 16 7q16 17 19 24l-1 -2q3 11 4 32q1 11 3 31q-1 5 -1 17v53q-1 11 -1 21l1 10v7q0 18 5.5 38t10.5 32t7 14
l-18 -1q-1 9 -2 29v-1q-1 6 -1 22t1 23v27l2 42q2 36 5 52l-6 28q-7 31 -10 37q-11 17 -42 37q-8 5 -8 18q0 30 37 30zM334 830q38 0 38 -39q0 -26 -22 -42q-14 -12 -30 -14l-17 -2h-3h1q-3 -1 -19 -6q-2 -1 -7 -3t-7 -3l-6 -2q-26 -13 -29 -13q-16 0 -16 18q0 13 24 30
q26 19 48 48q19 28 45 28z" />
    <glyph glyph-name="Ecircumflex" unicode="&#xca;" horiz-adv-x="473" 
d="M77 674l21 -1q1 0 8 0.5t12 0.5q4 0 13 0.5t16 0.5q8 0 21 1h11q3 0 8.5 0.5t7.5 0.5q24 0 43 -5q8 -3 10 -3q7 1 19 3l-1 -1q4 2 15 2q12 0 24 1q10 1 24 1q23 0 48 -6l2 -1h3l-3 -1q11 2 19 4l2 1h4h6q29 0 32 -24q1 -4 3 -37v-16v-16v-9q0 -2 1 -7t1.5 -10t1.5 -11
q0 -8 1 -11q1 -4 1 -12q0 -26 -20 -26l-24 16q-6 5 -22 40l-8 15q-4 8 -9 13l-4 4q-8 8 -22 14v-1q-6 1 -31 3q-1 1 -7 3h-3l-2 1q-30 10 -44 10q-37 0 -38 -17v-9q0 -1 -0.5 -5t-0.5 -6l-2 -15v-9q-6 -33 -6 -49v-3q0 -2 0.5 -17t0.5 -24q0 -19 -1 -40q0 -37 23 -37
q12 0 22 7q34 24 46 39q10 15 22 15q13 0 21 -19v-11q0 -2 0.5 -6t0.5 -7l2 -19v-14q0 -10 -2 -42l-1 -14q0 -10 1 -23q0 -6 2 -12v-5q0 -10 -8 -29v1q-3 -11 -16 -11q-10 0 -23 16l-11 15l-8 21l-16 17q-4 6 -8 10t-24 4q-12 0 -14 -5l1 -19q0 -3 -0.5 -10.5t-0.5 -12.5
q0 -19 -4 -35q-6 -28 -6 -37t1 -20l-1 -26q0 -21 -1 -34q0 -2 -0.5 -6.5t-0.5 -5.5l-2 -12v-3q0 -23 48 -24h3q3 0 14 -1l25 -3q2 0 32 7q16 4 17 7l20 19q21 14 22 17l-1 -2q6 13 21 53v-1q6 21 25 21q22 0 22 -31q0 -70 -4 -91v1l-2 -40q-6 -27 -32 -27q-6 0 -45 9
q-2 0 -4.5 0.5t-4.5 1.5q-24 -4 -30 -4h-6q-2 0 -42 2l-70 -3q-1 0 -7 0.5t-9 0.5q-7 1 -17 1h-6q-32 0 -68 -1l-41 -2q-26 0 -26 20q0 15 12 24q0 6 7 6q4 1 16 7q16 18 18 22q3 11 4 32q1 11 3 31q-1 5 -1 17v53q-1 11 -1 22l1 9v7q0 18 5.5 38t10.5 32t7 14l-18 -1
q-1 9 -2 30v-1q-1 5 -1 21t1 24v26l2 42q2 36 5 52l-6 28q-6 30 -10 37q-13 20 -42 37q-8 5 -8 18q0 30 37 30zM263 842q8 0 18 -5l2 -3l3 -3q3 -3 11 -14l16 -25l9 -13l4 -8t5 -9l3.5 -7t4.5 -8q4 -10 8 -18l-1 2q6 -7 6 -16q0 -17 -18 -17q-12 0 -54 35q-20 33 -21 33
q-6 0 -14 -17q-10 -20 -23 -28q-11 -9 -19 -16q-10 -10 -21 -10q-16 0 -16 19q0 1 15 28h-1l10 17l15 23l-1 -1l7 11l16 21l2 4q4 12 9 17q6 8 25 8z" />
    <glyph glyph-name="Edieresis" unicode="&#xcb;" horiz-adv-x="473" 
d="M77 674l21 -1q1 0 8 0.5t12 0.5q4 0 13 0.5t16 0.5q8 0 21 1h11q3 0 8.5 0.5t7.5 0.5q24 0 43 -5q8 -3 10 -3q7 1 19 3l-1 -1q4 2 15 2q12 0 24 1q10 1 24 1q23 0 48 -6l2 -1h3l-3 -1q11 2 19 4l2 1h4h6q29 0 32 -25q2 -5 3 -37v-15v-16v-10q2 -14 4 -27q0 -8 1 -11
q1 -5 1 -13q0 -25 -20 -25l-24 16q-7 7 -22 40l-8 14q-4 7 -9 14l-4 4q-8 8 -22 14v-1q-6 1 -31 3q-1 1 -7 3h-3l-2 1q-31 9 -44 9q-37 0 -38 -16v-9q0 -1 -0.5 -5.5t-0.5 -6.5l-2 -14v-9q-6 -34 -6 -49v-3q0 -2 0.5 -17t0.5 -24q0 -20 -1 -40q0 -37 23 -37q12 0 22 7
q31 21 46 39q9 14 22 14t21 -18v-11q0 -2 0.5 -6.5t0.5 -7.5l2 -18v-14q0 -10 -2 -42l-1 -14q0 -10 1 -23q0 -5 2 -13v-4q0 -10 -8 -29v1q-3 -12 -16 -12q-9 0 -23 17l-11 15l-8 21l-16 17q-4 6 -8 10q-5 3 -24 3q-13 0 -14 -4l1 -19q0 -3 -0.5 -10.5t-0.5 -12.5
q0 -19 -4 -36q-6 -26 -6 -36q0 -9 1 -20l-1 -27q0 -20 -1 -33q0 -2 -0.5 -6.5t-0.5 -5.5l-2 -12v-3q0 -23 48 -25h3l41 -3q4 0 30 7q16 4 17 7l20 19q21 14 22 17l-1 -2q6 13 21 53v-1q6 21 25 21q22 0 22 -31q0 -70 -4 -91v1l-2 -40q-6 -27 -32 -27q-6 0 -45 9
q-2 0 -4.5 0.5t-4.5 1.5q-24 -4 -30 -4h-6q-2 0 -42 2l-70 -3q-1 0 -7 0.5t-9 0.5q-7 1 -17 1h-6q-32 0 -68 -1l-41 -2q-26 0 -26 20q0 15 12 24q0 6 7 6q4 1 16 7q14 14 18 22q3 11 4 32q1 11 3 31q-1 5 -1 17v53q-1 11 -1 21l1 10v7q0 18 5.5 38t10.5 32t7 14l-18 -1
q-1 9 -2 29v-1q-1 6 -1 22q0 15 1 23v27l2 42q2 36 5 51l-6 29q-7 31 -10 37q-11 17 -42 37q-8 5 -8 17q0 31 37 31zM172 821q11 0 35 -16q12 -8 15 -20q0 -8 1 -16v1q3 -12 3 -17q0 -9 -7 -20v1q-8 -20 -16.5 -25.5t-29.5 -5.5q-12 0 -30 12v-1q-26 17 -26 45q0 17 16 36
q24 26 39 26zM341 813h6q19 0 32 -8q21 -15 21 -48q0 -13 -5 -27l1 1q-1 -11 -20 -19q-19 -10 -29 -10q-46 0 -46 64q0 18 12 32.5t28 14.5z" />
    <glyph glyph-name="Igrave" unicode="&#xcc;" horiz-adv-x="253" 
d="M75 675l55 -3q32 4 44 4q50 0 50 -34q0 -11 -14 -23q-16 -14 -17 -20q-9 -29 -9 -135v-1q0 -9 1 -21q2 -34 2 -60v-27q0 -50 -3 -83v-12v-15q1 -15 1 -29v-1q0 -7 -1 -14v-9q0 -5 4 -28l1 -53v1l1 -14q5 -10 8 -17q1 -4 4 -10q0 -2 3 -8l14 -15q9 -16 9 -23
q0 -25 -18 -25h-28q-3 0 -4 -1q-7 -1 -19 -1q-1 0 -3 0.5t-4 0.5t-6 0.5t-7 0.5l-40 -1h-4q-12 0 -33 8q-11 6 -11 22q0 9 6 17l23 20q4 7 6 26q0 4 2 12q0 3 0.5 11.5t1.5 15.5q2 6 2 10q0 2 -2 16q-1 7 -1 19q0 18 1 31v-1q0 2 0.5 7t0.5 7q3 29 3 43q0 4 -3 37v-1
q-1 3 -1.5 10.5t-0.5 10.5l3 33v-1v2q-1 2 -1 4q0 1 -0.5 5.5t-0.5 7.5v100q0 4 -1 9q-3 33 -4 40v12l-1 53q-1 14 -19 33q-19 17 -19 29q0 26 29 28zM74 833q5 0 24 -12l6 -6v1q1 -2 5.5 -8t11 -13.5t13.5 -15.5q2 -3 10 -9q2 -3 10 -11q20 -17 20 -35q0 -20 -19 -20
q-3 0 -21 9q-10 4 -13 6l1 -1l-31 10l-19 7q-1 1 -2.5 1t-2.5 1l1 -1q-5 2 -23 10q-16 13 -16 32q0 20 13.5 37.5t31.5 17.5z" />
    <glyph glyph-name="Iacute" unicode="&#xcd;" horiz-adv-x="252" 
d="M75 675l55 -3q31 4 44 4q49 0 49 -34q0 -12 -13 -23q-16 -14 -18 -20q-8 -30 -8 -135v-1q0 -9 1 -21q2 -34 2 -60v-27q0 -50 -3 -83q-1 -2 -1 -12q0 -8 1 -15q1 -15 1 -30q0 -7 -1 -14v-9q0 -5 4 -28l1 -53v1l1 -14q5 -10 8 -17q1 -4 4 -10q0 -5 3 -9l14 -14q9 -16 9 -23
q0 -25 -18 -25h-28q-3 0 -4 -1q-7 -1 -19 -1q-1 0 -3 0.5t-4 0.5t-6 0.5t-7 0.5l-40 -1h-5q-11 0 -32 8q-11 5 -11 22q0 9 6 17l23 20q4 7 6 26q0 4 2 12q0 3 0.5 11.5t1.5 15.5q2 6 2 10q0 2 -2 16q-1 7 -1 19q0 18 1 31q0 2 0.5 6.5t0.5 6.5q3 29 3 43q0 4 -3 37v-1
q-1 3 -1.5 10.5t-0.5 10.5l3 33v1q-1 2 -1 4q0 1 -0.5 5.5t-0.5 7.5v100q0 4 -1 8q-3 31 -4 41q0 1 -0.5 5.5t-0.5 6.5v53q-1 14 -20 33h1q-19 17 -19 29q0 26 29 28zM207 830q36 0 36 -39q0 -27 -21 -42q-14 -13 -29 -14l-15 -2l-1 -1h-2h1q-3 0 -9 -2l-9 -3q-2 -1 -7 -3
t-7 -3q-1 0 -2.5 -0.5t-2.5 -1.5q-26 -13 -28 -13q-16 0 -16 18q0 12 24 30q26 21 45 48q19 28 43 28z" />
    <glyph glyph-name="Icircumflex" unicode="&#xce;" horiz-adv-x="250" 
d="M75 675l54 -3q31 4 44 4q48 0 48 -34q0 -12 -13 -23q-14 -11 -17 -20q-8 -25 -8 -135v-1q0 -9 1 -20q0 -9 0.5 -29t0.5 -32v-26q0 -41 -2 -83q-1 -3 -1 -13q0 -8 1 -15q1 -14 1 -30q0 -7 -1 -14v-9q0 -2 3 -28l1 -53v1l1 -14q5 -10 8 -17q1 -4 4 -10q0 -2 3 -8l14 -15
q9 -16 9 -23q0 -25 -18 -25h-28q-3 0 -4 -1q-7 -1 -19 -1h-3q-2 1 -4 1q-1 0 -5 0.5t-7 0.5l-40 -1h-4q-11 0 -33 8q-11 6 -11 22q0 10 7 17l22 20q6 10 6 26q0 3 2 13q0 2 0.5 10.5t1.5 15.5q2 6 2 10q0 2 -2 16q-1 7 -1 19q0 18 1 31q0 2 0.5 6.5t0.5 6.5q3 29 3 43
q0 4 -3 37v-1q0 3 -1 10.5t-1 10.5l3 33l-1 2v4q0 1 -0.5 5t-0.5 7v100q0 4 -1 9q-1 7 -3 40q0 2 -0.5 6t-0.5 6l-1 53q-2 17 -19 33h1q-19 16 -19 30q0 25 29 27zM139 842q6 0 18 -5q0 -2 4 -6q2 -2 10 -14l15 -25l9 -13q7 -14 8 -17l3.5 -7t4.5 -8q4 -10 8 -18l-1 2
q5 -7 5 -16q0 -18 -17 -18q-10 0 -50 36l-20 33q-6 0 -14 -17q-10 -21 -21 -28q-10 -8 -18 -16q-10 -10 -20 -10q-15 0 -15 19q0 4 14 27h-1l9 18l15 22h-1l6 11l15 21l2 4q5 13 8 17q8 8 24 8z" />
    <glyph glyph-name="Idieresis" unicode="&#xcf;" horiz-adv-x="255" 
d="M76 675l55 -3q32 4 45 4q50 0 50 -35q0 -10 -14 -22q-16 -14 -17 -21q-9 -27 -9 -135q0 -9 1 -21q2 -34 2 -60v-27q0 -50 -3 -83q-1 -3 -1 -12q0 -8 1 -15q1 -15 1 -30q0 -7 -1 -14v-9q0 -5 4 -28l1 -53v1l1 -14q5 -10 8 -17q1 -4 4 -10q0 -1 0.5 -2.5t1.5 -3.5t1 -3
l14 -14q9 -14 9 -23q0 -25 -18 -25h-28q-3 0 -4 -1q-7 -1 -19 -1q-1 0 -3.5 0.5t-4.5 0.5q-1 0 -5.5 0.5t-7.5 0.5l-40 -1h-5q-11 0 -33 8q-11 6 -11 22q0 10 7 17l23 20q4 7 6 26q0 4 2 12q0 3 0.5 11.5t1.5 15.5q2 6 2 10q0 2 -2 16q-1 7 -1 19q0 18 1 31q0 2 0.5 6.5
t0.5 6.5q3 29 3 43q0 4 -3 37v-1q-1 3 -1.5 10.5t-0.5 10.5l3 32l-1 2v4q0 1 -0.5 5.5t-0.5 7.5v100q0 3 -1 8q-3 31 -4 40q0 2 -0.5 6.5t-0.5 6.5l-1 53q0 14 -19 33h1q-19 16 -19 29q0 26 29 28zM78 821q11 0 34 -17q12 -8 15 -19v-15q0 -4 0.5 -8t1 -6t0.5 -3
q0 -9 -5 -19q-8 -20 -16 -25.5t-29 -5.5q-11 0 -29 12v-1q-24 15 -24 45q0 18 14 36q24 26 38 26zM192 813h5q19 0 32 -9q20 -13 20 -47q0 -13 -5 -27l1 1q-2 -11 -20 -19q-17 -10 -27 -10q-45 0 -45 63q0 16 12 32t27 16z" />
    <glyph glyph-name="Eth" unicode="&#xd0;" horiz-adv-x="605" 
d="M97 295q0 1 -1 1l-9 -1q-3 0 -8 -0.5t-6 -0.5q-2 0 -4 -0.5t-3 -0.5q-25 0 -25 45q0 10 9.5 24t17.5 14h10l14 -1l4 -1v7q-3 48 -3 55q0 30 2 44q3 21 3 25q0 1 -0.5 4t-1 8t-0.5 9q-2 21 -3 27q-7 28 -9 33q-1 3 -13 17l2 -1q-11 8 -20 13q-12 9 -12 24q0 27 50 27
q24 0 44 -5h-2h3q3 -1 6 -1q5 0 40 8l55 3q3 -1 24 -1q3 0 10.5 -0.5t12.5 -0.5q32 -1 80 -3q16 -1 72 -34l7 -4l14 -13l-2 2q40 -23 62 -54q12 -9 44 -53q18 -52 20 -66q6 -41 6 -62v-101q0 -27 -17 -81q-7 -25 -10 -29q-2 -5 -19 -33q-14 -27 -32 -49q-23 -21 -39 -32l1 1
q-2 -1 -5.5 -3t-4.5 -3l-14 -8q-6 -4 -61 -23h1q-2 -1 -5 -2t-7 -2t-6 -2q-39 -15 -58 -17q-14 0 -36 -1q-3 0 -8 -0.5t-6 -0.5l-10 1q-8 -3 -13 -3q-2 0 -3.5 -0.5t-2.5 -0.5q-6 0 -10 1q-1 0 -5 1t-7.5 1.5t-7.5 1.5q-6 1 -34 1q-17 0 -30 1l-27 -1l-33 1l-9 -1h-9
q-23 1 -23 29q0 16 10 23h-1l4 2q5 3 9 5q3 1 12 8q21 16 21 52v8q0 12 4 34q2 24 2 27q0 11 -2 41v2v9q0 6 1 12l-1 -2q1 12 1 46zM293 604q-75 0 -78 -51q-2 -23 -8 -55q0 -2 7 -32v-14q0 -4 -0.5 -11t-1.5 -20t-2 -23q0 -2 -0.5 -5.5t-0.5 -4.5v-8q0 -9 4 -9q11 0 23 5
q4 1 9 2t8 2t4 1q11 0 26 -15l-1 1q6 -4 8 -16l4 -14l-10 -23v1q-7 -20 -21 -20q-6 0 -18 2q-1 0 -4 1l-11 2q-8 0 -15 -3l-7 -2l3 -29l-2 -17l-1 -12v1l-1 -24l-1 -25q0 -3 0.5 -8t1.5 -8l2 -24v-6q0 -5 -2 -29v-2q0 -28 21 -44q13 -12 25 -12l3 1q3 1 11 3.5t17 4.5l31 5
l22 5q2 1 27 10q3 2 17 18l22 26q4 5 15 16l-1 -1l10 16q2 5 8 13q2 3 8 11q2 2 8 10q4 7 7 21q0 1 0.5 3.5t0.5 4.5q0 1 1.5 13.5t2.5 20.5l7 39v-2q0 4 0.5 9.5t1.5 13t1 11.5q2 22 2 27l-3 26l-1 27q0 7 -2 37v5q-1 1 -3.5 5.5t-6.5 12t-8 15.5q-9 19 -34 56
q-11 11 -40 27l-6 3l2 -1q-4 3 -18 13h1q-21 13 -32 19h1q-14 4 -33 4z" />
    <glyph glyph-name="Ntilde" unicode="&#xd1;" horiz-adv-x="650" 
d="M100 476v25q0 29 -4 45q-7 31 -14 40q-5 5 -38 23h1q-22 10 -22 30q0 28 23 28l26 -1q8 2 24 3h7q1 0 43 2l62 3q37 0 37 -30q0 -5 -2 -10l1 1q-3 -19 -3 -25q0 -22 57 -108l10 -16q8 -14 12 -19q27 -46 73 -106q34 -39 53 -60q2 -2 4.5 -5t3.5 -4t2 -3l6 -7v1
q8 -14 16 -18l23 -12q3 6 6 14q2 8 7 57l4 51l-1 51q0 5 2 25v5l1 2l-3 26l-1 14v-1q-6 29 -9 72q-4 23 -47 50q-15 9 -15 24q0 5 7.5 16t13.5 11l56 -6l7 2q18 6 24 6h29q21 0 36 -3q18 -7 18 -24q0 -13 -11 -20l-19 -11q-23 -14 -24 -34q-2 -12 -3 -63q0 -22 -2 -32v-3
q0 -2 0.5 -5t1 -9t0.5 -12q0 -23 1 -50v-27q-4 -32 -4 -46v-74q-4 -31 -4 -38q0 -8 4 -43v-56q1 -22 1 -42q0 -12 1 -16q0 -3 0.5 -9t0.5 -8q0 -3 0.5 -6t0.5 -4q0 -41 -32 -41q-14 0 -18 9l-27 43q-1 1 -3 4q-4 4 -6 7q-33 32 -37 39h1q-4 5 -9 13t-8 12.5l-5 7.5
q-11 11 -34 40h1l-10 10l-16 22l-20 24l-18 25l-20 25q-1 2 -6 8.5t-8 9.5q-9 12 -14 17q-1 1 -3 4t-4.5 6t-4.5 6q-3 4 -6.5 9.5t-9 13t-9.5 12.5q-18 25 -24 36l1 -1q-4 6 -40 55l-29 41q0 -1 -0.5 -3t-0.5 -3v-55l-1 -45q-1 -67 -4 -126q-3 -38 -3 -45q0 -9 3 -29
q0 -12 1 -21q0 -2 0.5 -7t0.5 -8l1 -13q1 -29 3 -40v1q6 -40 51 -49q23 -4 23 -30q0 -22 -52 -22q-11 0 -21 1h1q-20 1 -56 1q-15 0 -24 -1h-7q-14 0 -34 5q-22 7 -22 24q0 10 8 17q0 6 10 6q1 0 15 9q21 10 27 33q7 22 9 88q0 21 1 32q1 10 1 13q0 10 -1 31v10q0 15 4 44
q1 5 1 9l-1 18v20q0 3 -0.5 7t-0.5 5q0 2 -0.5 5t-0.5 4q0 10 3 31q2 6 2 26q0 1 0.5 8t0.5 12q1 8 1 19zM298 821q9 0 13 -1h-2q7 0 20 -8l7 -4l20 -6q31 -17 36 -17q12 0 34 18q4 1 7 4q19 0 19 -17q0 -9 -8 -19q-2 -4 -4 -6q-1 -1 -9 -11q-25 -39 -55 -39q-16 0 -28 5
q-23 9 -29 12l1 -1l-16 5q-28 14 -42 14q-3 0 -8 -7l1 1q-12 -20 -21 -20q-18 0 -18 18q0 2 17 31l11 12l-1 -1q7 11 24 27q16 10 31 10zM37 51h2h-2z" />
    <glyph glyph-name="Ograve" unicode="&#xd2;" horiz-adv-x="719" 
d="M399 690q46 0 79 -13q24 -10 57 -34q10 -8 24 -18q0 -1 1 -1q2 0 6 -4l8 -7l14 -14v1q11 -9 25 -25q5 -5 13 -18l18 -30q1 -2 3.5 -5.5t3.5 -5.5l-1 1l21 -32l-1 1q3 -3 6 -20l1 -4q1 -5 2 -8l-1 2q4 -8 7 -17t5 -15.5t3 -7.5v-2q0 -14 1 -23l3 -40q0 -6 -3 -36l2 -43v-6
q0 -8 -4 -32q-3 -13 -24 -56l-17 -33l-14 -18l-11 -13l-14 -16q-13 -17 -56 -55q-88 -56 -190 -56q-65 0 -96 10q-114 35 -171 147q-29 56 -41 94h1q-9 32 -13 55v4q0 3 -0.5 9.5t-1 18t-0.5 22.5q0 8 -2 14v5q0 37 16 86h-1q4 13 37 73q21 32 23 35h-1q1 3 6.5 9.5
t8.5 11.5q45 48 111 78q49 22 61 24l-1 -1h4q5 1 13.5 2t16.5 2q1 0 4 0.5t4 0.5q43 3 55 3zM373 620l-30 5q-16 -3 -31 -12q-30 -19 -35 -24q-28 -28 -44 -51q-8 -11 -23 -41l-14 -24v1l-8 -21q-6 -12 -8 -20v1q0 -1 -1 -2.5t-1.5 -3t-0.5 -3.5q-3 -12 -3 -40q0 -14 1 -25
v-31l-2 -62q0 -2 14 -64q2 -8 12 -40h-1q2 -4 29 -34q10 -19 16 -23q1 -1 26 -19q24 -19 42 -27q7 -3 40 -6q8 -1 18 -1q2 0 4 -0.5t3 -0.5h2q27 0 41 4h-1q17 8 24 14l18 12l27 18h-1q9 7 21 26q2 6 6 10q16 20 47 80q6 21 7 37q1 9 1 14v67q0 14 -1 34v-1q-1 7 -1 24
q0 3 -0.5 10.5t-0.5 11.5q-3 6 -6 19q-10 42 -32 78q-9 18 -50 62q-22 28 -24 30q-6 6 -28 10q-3 0 -5 1q-7 0 -10 3q-18 3 -37 4zM304 833q4 0 26 -11l6 -6v1q30 -35 32 -37l10 -10q7 -7 12 -11q21 -17 21 -35q0 -20 -20 -20q-3 0 -23 9q-10 4 -14 6l1 -1l-33 10l-20 8
q-1 0 -2.5 1t-2.5 1l1 -1q-16 5 -24 9q-18 12 -18 33q0 19 14.5 36.5t33.5 17.5zM566 411l-1 1z" />
    <glyph glyph-name="Oacute" unicode="&#xd3;" horiz-adv-x="719" 
d="M399 690q46 0 79 -13q24 -10 57 -34q10 -8 24 -18q0 -1 1 -1q2 0 6 -4l8 -7l14 -14v1q11 -9 25 -25q5 -5 13 -18l18 -30q1 -2 3.5 -5.5t3.5 -5.5l-1 1l21 -32l-1 1q3 -3 6 -20l1 -4q1 -5 2 -8l-1 2q4 -8 7 -17t5 -15.5t3 -7.5v-2q0 -14 1 -23l3 -40q0 -6 -3 -36l2 -43v-6
q0 -8 -4 -32q-3 -13 -24 -56l-17 -33l-14 -18l-11 -13l-14 -16q-13 -17 -56 -55q-88 -56 -190 -56q-65 0 -96 10q-114 35 -171 147q-29 56 -41 94h1q-9 32 -13 55v4q0 3 -0.5 9.5t-1 18t-0.5 22.5q0 8 -2 14v5q0 37 16 86h-1q4 13 37 73q21 32 23 35h-1q1 3 6.5 9.5
t8.5 11.5q45 48 111 78q49 22 61 24l-1 -1h4q5 1 13.5 2t16.5 2q1 0 4 0.5t4 0.5q43 3 55 3zM373 620l-30 5q-16 -3 -31 -12q-30 -19 -35 -24q-28 -28 -44 -51q-8 -11 -23 -41l-14 -24v1l-8 -21q-6 -12 -8 -20v1q0 -1 -1 -2.5t-1.5 -3t-0.5 -3.5q-3 -12 -3 -40q0 -14 1 -26
v-30l-2 -62q0 -2 14 -64q2 -8 12 -40h-1q2 -4 29 -34q9 -17 16 -24q3 -1 26 -18q24 -19 42 -27q7 -3 40 -6q8 -1 18 -1q2 0 4 -0.5t3 -0.5h2q27 0 41 4h-1q17 8 24 14l18 12l27 18h-1q10 8 21 25v1q2 6 6 10q18 23 48 82l-1 -1q6 22 7 36q1 9 1 14v67q0 14 -1 34v-1
q-1 7 -1 24q0 3 -0.5 10.5t-0.5 11.5q-3 6 -6 19q-10 42 -32 78q-9 18 -50 62q-22 28 -24 30q-6 6 -28 9q-3 0 -5 1q-6 0 -10 4q-18 3 -37 4zM446 830q39 0 39 -39q0 -26 -22 -42q-14 -11 -31 -13l-17 -2h-1l-2 -1q-6 -1 -18 -6l-15 -6q-1 0 -2.5 -0.5t-2.5 -1.5
q-28 -13 -30 -13q-17 0 -17 18q0 12 25 30t49 48q18 28 45 28zM566 411l-1 1z" />
    <glyph glyph-name="Ocircumflex" unicode="&#xd4;" horiz-adv-x="719" 
d="M399 690q46 0 79 -13q28 -11 57 -34q10 -8 24 -18q0 -1 1 -1q2 0 6 -4q3 -2 22 -21v1q7 -6 25 -24q4 -4 13 -19l18 -30q1 -2 3.5 -5.5t3.5 -5.5l-1 1l21 -32l-1 2q3 -5 6 -21l1 -4q1 -5 2 -8l-1 2q4 -8 7 -17t5 -15.5t3 -7.5v-2q0 -14 1 -23l3 -40q0 -6 -3 -36l2 -43v-6
q0 -9 -4 -31q-3 -13 -24 -57l-17 -33l-14 -18l-11 -13l-14 -16q-13 -17 -56 -55q-88 -56 -190 -56q-65 0 -96 10q-114 35 -171 147q-29 56 -41 94h1q-9 32 -13 55v4q0 3 -0.5 9.5t-1 18.5t-0.5 22q0 7 -2 15v4q0 37 16 86h-1q5 16 37 73q21 32 23 35h-1q3 5 15 21
q42 46 111 79q52 21 61 23l-1 -1h4q5 1 13.5 2t16.5 2q1 0 4 0.5t4 0.5q43 3 55 3zM373 620l-30 5q-19 -4 -31 -11q-31 -21 -35 -25q-24 -22 -44 -51q-7 -6 -23 -41l-14 -24v1l-8 -21q-5 -9 -8 -20v1q0 -1 -1 -2.5t-1.5 -3t-0.5 -3.5q-3 -12 -3 -40q0 -14 1 -25v-31l-2 -62
q0 -2 14 -64q3 -13 12 -40h-1l29 -34q10 -19 16 -23q1 -1 26 -19q24 -19 42 -27q7 -3 40 -6q8 -1 18 -1q2 0 4 -0.5t3 -0.5h2q27 0 41 4h-1q12 6 24 14l18 12l27 18h-1q10 8 21 25v1q2 6 6 10q24 33 47 81q6 22 7 36q1 9 1 14v67q0 14 -1 34v-1q-1 7 -1 24q0 3 -0.5 11
t-0.5 11q-3 6 -6 19q-10 42 -32 78q-9 17 -50 63q-5 6 -11 13t-10 12l-3 4q-6 6 -28 10q-3 0 -5 1q-6 0 -10 4q-18 3 -37 3zM375 842q6 0 18 -5l5 -5q3 -3 11 -15l16 -25l10 -13q7 -14 8 -17q2 -4 8 -14q5 -11 9 -19l-1 2q6 -7 6 -16q0 -17 -19 -17q-12 0 -54 35l-21 33
q-7 0 -15 -17q-12 -21 -23 -28q-1 -1 -4.5 -3.5t-7.5 -5.5t-8 -7q-10 -10 -21 -10q-16 0 -16 19q0 4 15 28h-1l10 17l15 23l-1 -1l7 11l17 21l2 4q5 15 8 17q8 8 27 8zM566 411l-1 1z" />
    <glyph glyph-name="Otilde" unicode="&#xd5;" horiz-adv-x="719" 
d="M399 689q48 0 79 -12q24 -10 57 -34q10 -8 24 -18q0 -1 1 -1q2 0 6 -4q10 -10 22 -21v1q11 -9 25 -25q3 -3 13 -18l18 -31q1 -2 3.5 -5t3.5 -5l-1 1l21 -33l-1 2q3 -5 6 -20l1 -4q1 -5 2 -8l-1 2q4 -8 7 -17t5 -15.5t3 -7.5v-2q0 -15 1 -23l3 -40q0 -5 -3 -37l2 -43v-5
q0 -8 -4 -32q-3 -13 -24 -56l-17 -33l-14 -18l-11 -13l-14 -16q-13 -17 -56 -55q-88 -56 -190 -56q-65 0 -96 10q-114 35 -171 147q-29 56 -41 94h1q-10 33 -13 55v4q0 3 -0.5 9.5t-1 18t-0.5 22.5q0 6 -2 14v5q0 37 16 86h-1q4 14 37 72q2 4 10 16t13 20h-1q9 12 15 21
q45 48 111 78q49 22 61 24l-1 -1h4q5 1 13.5 2t16.5 2q2 0 5 0.5t4 0.5h-1q11 0 24.5 0.5t20.5 1t10 0.5zM373 620l-30 5q-16 -3 -31 -12q-30 -19 -35 -24q-28 -28 -44 -51q-8 -11 -23 -41l-14 -24v1l-8 -21q-5 -11 -8 -20v1q0 -1 -1 -2.5t-1.5 -3t-0.5 -3.5q-3 -12 -3 -40
q0 -14 1 -26v-30l-2 -62q0 -2 14 -64q2 -8 12 -40h-1q2 -4 29 -34q11 -19 17 -25l-1 1q3 -1 26 -18q24 -19 42 -27q7 -3 40 -6q8 -1 18 -1q2 0 4 -0.5t3 -0.5h2q27 0 41 4h-1q17 8 24 14l18 12l27 18h-1q10 8 21 25v1q2 6 6 10q20 27 47 81q6 22 7 36q1 9 1 14v67
q0 14 -1 34v-1q-1 7 -1 24q0 3 -0.5 10.5t-0.5 11.5q-3 6 -6 19q-10 39 -32 78q-11 20 -50 62q-22 28 -24 30q-7 5 -28 9q-3 0 -5 1q-6 0 -10 4q-18 3 -37 4zM333 821q9 0 12 -1q13 -4 19 -7l7 -4l20 -7q30 -17 36 -17q12 0 34 18q4 2 7 5q19 0 19 -18q0 -10 -9 -19
q-1 -1 -3 -5l-9 -12q-27 -39 -56 -39q-14 0 -28 5q-2 1 -6 2.5t-10 4t-13 5.5l1 -1l-15 5q-29 14 -42 14q-4 0 -9 -7l1 1q-12 -19 -20 -19q-19 0 -19 17q0 3 18 31l10 12v-1q5 9 24 28q15 9 31 9zM566 411l-1 1z" />
    <glyph glyph-name="Odieresis" unicode="&#xd6;" horiz-adv-x="719" 
d="M399 689q48 0 79 -12q24 -10 57 -34q10 -8 24 -18q0 -1 1 -1q2 0 6 -4q10 -10 22 -21v1q11 -9 25 -25q3 -3 13 -18l18 -31q1 -2 3.5 -5t3.5 -5l-1 1l21 -33l-1 2q3 -5 6 -20l1 -4q1 -5 2 -8l-1 2q4 -8 7 -17t5 -15.5t3 -7.5v-2q0 -15 1 -23l3 -40q0 -5 -3 -37l2 -43v-5
q0 -8 -4 -32q-3 -13 -24 -56l-17 -33l-14 -18l-11 -13l-14 -16q-13 -17 -56 -55q-88 -56 -190 -56q-65 0 -96 10q-114 35 -171 147q-29 56 -41 94h1q-10 33 -13 55v4q0 3 -0.5 9.5t-1 18t-0.5 22.5q0 6 -2 14v5q0 37 16 86h-1q4 14 37 72q2 4 10 16t13 20h-1q9 12 15 21
q45 48 111 78q49 22 61 24l-1 -1h4q5 1 13.5 2t16.5 2q1 0 4 0.5t4 0.5q11 0 24.5 0.5t20.5 1t10 0.5zM373 620l-30 5q-16 -3 -31 -12q-30 -19 -35 -24q-28 -28 -44 -51q-8 -11 -23 -41l-14 -24v1l-8 -21q-5 -11 -8 -20v1q0 -1 -1 -2.5t-1.5 -3t-0.5 -3.5q-3 -12 -3 -40
q0 -14 1 -26v-30l-2 -62q0 -2 14 -64q2 -8 12 -40h-1q2 -4 29 -34q9 -17 16 -24q3 -1 26 -18q24 -19 42 -27q7 -3 40 -6q8 -1 18 -1q2 0 4 -0.5t3 -0.5h2q27 0 41 4h-1q17 8 24 14l18 12l27 18h-1q10 8 21 25q2 6 6 11q16 20 47 80q6 21 7 37q1 9 1 14v67q0 14 -1 34v-1
q-1 7 -1 24q0 3 -0.5 10.5t-0.5 11.5q-3 6 -6 19q-10 39 -32 78q-11 20 -50 62q-22 28 -24 30q-7 5 -28 9q-3 0 -5 1q-6 0 -10 4q-18 3 -37 4zM281 821q12 0 36 -16q13 -9 16 -20q0 -8 1 -15v1q3 -14 3 -18q0 -9 -7 -20v1q-9 -20 -17.5 -25.5t-30.5 -5.5q-10 0 -30 12v-1
q-26 17 -26 45q0 17 16 36q23 26 39 26zM453 813h7q21 0 32 -8q21 -13 21 -48q0 -13 -5 -27l1 1q-1 -11 -20 -19q-19 -10 -29 -10q-47 0 -47 64q0 18 12 32.5t28 14.5zM566 411l-1 1z" />
    <glyph glyph-name="multiply" unicode="&#xd7;" horiz-adv-x="435" 
d="M100 481q15 0 35 -17q3 -3 26 -23l10 -11q8 -6 16 -17q25 -33 42 -33q7 7 17 19q4 4 10 9.5t7 6.5q35 33 42 44q17 26 38 26q10 0 24.5 -16t14.5 -28q0 -9 -6 -15l-21 -21q-1 -1 -6.5 -7.5t-9.5 -9.5h1q-6 -7 -21 -22q-37 -34 -37 -45q0 -7 11 -15q4 -3 9 -8t14.5 -13.5
t17.5 -15.5q1 -1 37 -34q27 -24 27 -36q0 -17 -18 -17h-11h-2l-5 -6q-4 -4 -27 -4q-7 0 -17 10v-1l-38 38q-2 5 -9 11q-16 13 -20 19q-15 18 -18 18q-6 0 -16 -9q-1 0 -2 -2l-1 -2q-1 -2 -16 -17l-21 -22l1 1l-26 -31q-30 -21 -38 -21q-11 0 -17 7l-7 8q-23 15 -23 26
q0 14 31 42l29 26q18 23 21 24q1 1 3.5 2.5t3.5 1.5h-1q19 13 19 19v2l-20 19q-12 12 -9 11q-4 6 -7 9q-7 5 -13 12l-10 8l1 -1l-24 20q-32 38 -32 46q0 11 8 20q15 15 33 15z" />
    <glyph glyph-name="Oslash" unicode="&#xd8;" horiz-adv-x="719" 
d="M399 689q69 0 110 -25q5 -5 9 -5q2 3 5 10v-1q2 5 5 11q12 18 20 34q7 14 13 20q10 10 27 10q32 0 32 -24q0 -15 -37 -70l-4 -10l-5 -12q0 -14 32 -41q3 -5 9 -13.5t8 -11.5q1 -2 4 -5l17 -30q1 -2 3.5 -5.5t3.5 -5.5l-1 1l21 -32l-1 2q3 -4 6 -20l1 -4q1 -5 2 -8l-1 1
l11 -32l4 -9q0 -15 1 -24l3 -40q0 -4 -3 -36l2 -44v-6l-3 -27q-6 -17 -25 -59l-17 -34l-15 -19l-11 -12l1 1l-14 -16q-5 -5 -13 -15q-34 -36 -46 -43v1q-85 -54 -187 -54q-65 0 -96 10q-19 5 -41 15h-1l-2 1q-3 0 -6 -6q-1 -1 -3 -5.5t-4 -7.5q-1 -2 -16 -28
q-19 -34 -42 -34q-38 0 -38 22q0 7 23 39l-1 -1l11 23q19 26 19 33q0 4 -4 8l-17 15q-48 59 -68 112q-23 52 -31 87q0 7 -1 12t-3 19l-1 45q0 7 -2 15v5q0 37 16 86q9 26 15 37q3 4 5 7l16 28q30 50 38 58q42 45 110 77q52 21 61 23l-1 -1l4 1q5 0 13.5 1t16.5 2q2 0 5 0.5
t4 0.5h-1q43 3 55 3zM373 620l-30 5q-16 -3 -31 -12q-31 -21 -35 -25q-23 -21 -44 -50q-7 -8 -23 -41l-14 -25v1l-8 -20q-6 -11 -8 -21v1q0 -2 -1 -4l-2 -4q-3 -12 -3 -41q0 -13 1 -25v-30l-2 -65l14 -61v1l9 -29q0 -2 1 -4v-5q3 -8 13 -18q7 -8 10 -8t16 20h-1l14 24l15 22
l12 25l23 35l-1 -1q37 71 46 83q8 12 13 18l26 54l19 26l9 20q8 13 36 65q5 10 11 18q0 4 5 9q7 11 7 17q0 5 -8 16l-10 10q-2 1 -38 13q-12 4 -41 6zM518 524q-2 0 -13 -18h1l-6 -11l-43 -77q-19 -34 -39 -64l1 1l-22 -43q-10 -13 -23 -40l-18 -29v1q-5 -12 -13 -34
q-1 -1 -3 -4.5t-6 -9.5t-8 -13l-5 -9l-18 -25q-3 -3 -12 -23q-6 -11 -13 -25q-5 -8 -5 -10q0 -15 29 -28q12 -5 22 -7q8 0 28 -2q22 -2 26 -2q27 0 41 4h-1q19 9 24 13q6 7 45 32l-1 -1q8 5 21 25q2 6 6 11q18 23 48 82l-1 -1q6 19 7 36q1 9 1 13v24q-1 4 -1 14q0 9 1 13v17
q0 13 -1 34v-1q-1 7 -1 23q0 4 -0.5 11.5t-0.5 11.5q-3 6 -6 18q-10 39 -29 72l-7 13v-1zM566 411l-1 1z" />
    <glyph glyph-name="Ugrave" unicode="&#xd9;" horiz-adv-x="677" 
d="M475 616l1 -2q-4 3 -10.5 7.5t-8.5 5.5q-20 12 -20 25q0 19 35 19q15 0 43 -4q12 -2 27 -2q1 0 4 0.5t5 0.5h-1q7 1 21 1h42l27 1h3q24 0 24 -22q0 -17 -28 -42l-10 -6q-13 -5 -14 -6l2 1q-6 -6 -16 -29q-5 -12 -5 -28q0 -5 1 -15q1 -11 1 -32l2 -93l-2 -22v-19l-2 -26v1
l-1 -65q0 -5 3 -37q1 -7 1 -14q0 -18 -6 -46q-4 -15 -4 -18l-1 -2v-2l-4 -20q-1 -1 -3 -9v1q0 -1 -1 -3.5t-1.5 -4.5t-1.5 -4q-13 -35 -27 -50q-48 -54 -87 -63q-3 0 -5 -1q-12 -3 -20 -4l1 1q-14 -3 -45 -4q-25 -4 -41 -4q-38 0 -68 9q-79 24 -90 31h1q-22 9 -48 43
q-5 4 -10 12v-1q-19 22 -26 41q-12 37 -12 77v7l1 27l-2 33v-1l-4 21q0 24 -1 38q0 7 -0.5 19.5t-0.5 15.5q0 57 8 87v-3q0 1 1 3v5l-7 53q0 1 0.5 4.5t0.5 5.5q0 1 0.5 5t0.5 7v13q0 68 -30 83q-20 7 -24 15q-5 4 -5 13q0 23 33 23l23 1h13q4 -1 6 -1q13 0 28 1h30
q19 0 27 1h-1q6 1 33 1l37 1q37 0 37 -28q0 -12 -7 -22q-9 -7 -30 -13v1q-32 -12 -44 -35q-7 -19 -7 -42q-1 -9 -1 -26t1 -26l2 -22q0 -3 0.5 -8t0.5 -7q0 -8 1 -13v-5q-1 -5 -1 -8q0 -2 -0.5 -8.5t-0.5 -10.5v-13q-1 -4 -1.5 -11.5t-0.5 -11.5q-2 -12 -2 -14t0.5 -6
t1 -12.5t0.5 -15.5q1 -13 3 -37v-31l-1 -17q-1 -11 -1 -30q0 -37 9 -54q22 -42 28 -52v1q4 -6 25 -17h-1q3 -1 29 -18q6 -5 11 -5q7 0 37 6l-2 -1q4 2 9 2l47 -2h-1q16 2 46 13h-1q33 20 37 27q3 3 14 22v-1q1 1 2 4t2.5 5.5t2.5 4.5q18 30 19 36q0 10 3 45l4 54v-1l4 89
l-2 24l-1 54v6l1 21q-1 1 -1 2q-1 9 -3 26q0 5 -6 18q-6 15 -10 55q-2 8 1 9h-1l-24 17q-3 2 -20 27zM301 833q8 0 27 -11l5 -6v1q29 -34 32 -37q5 -5 11 -10q7 -7 12 -11q21 -18 21 -35q0 -20 -20 -20q-3 0 -24 9q-9 4 -13 6l1 -1l-33 10l-21 8l-4 2l1 -1q-1 0 -4 1.5
t-9 3.5l-12 4q-17 12 -17 33q0 19 14.5 36.5t32.5 17.5z" />
    <glyph glyph-name="Uacute" unicode="&#xda;" horiz-adv-x="677" 
d="M475 616l1 -2q-4 3 -10.5 7.5t-8.5 5.5q-20 12 -20 25q0 19 35 19q15 0 43 -4q12 -2 27 -2q1 0 4 0.5t5 0.5h-1q7 1 21 1h42l27 1h3q24 0 24 -22q0 -17 -28 -42l-10 -6q-13 -5 -14 -6l2 1q-6 -6 -16 -29q-5 -12 -5 -28q0 -5 1 -15q1 -11 1 -33l2 -92l-2 -22v-19l-2 -26v1
l-1 -65q0 -5 3 -37q1 -7 1 -14q0 -18 -6 -46q-4 -15 -4 -18l-1 -2v-2l-4 -20q-1 -1 -3 -9v1q0 -1 -1 -3.5t-1.5 -4.5t-1.5 -4q-13 -35 -27 -50q-48 -54 -87 -63l-3 -1h-3q-12 -3 -19 -4l1 1q-14 -3 -45 -4q-25 -4 -41 -4q-38 0 -68 9q-79 24 -90 31h1q-22 9 -48 43
q-5 4 -10 12v-1q-19 22 -26 41q-12 37 -12 77v7l1 27l-2 33v-1l-4 21q0 24 -1 38q0 7 -0.5 19.5t-0.5 15.5q0 57 8 87v-3q0 1 1 3v5l-7 53q0 1 0.5 4.5t0.5 5.5q0 1 0.5 5t0.5 7v13q0 68 -30 83q-20 7 -24 15q-5 4 -5 13q0 23 33 23l23 1h13q4 -1 6 -1q13 0 28 1h30
q19 0 27 1h-1q6 1 33 1l37 1q37 0 37 -28q0 -12 -7 -22q-9 -7 -30 -13v1q-33 -12 -44 -36q-7 -17 -7 -42q-1 -8 -1 -25q0 -18 1 -26l2 -22q0 -3 0.5 -8t0.5 -7q0 -8 1 -13v-5q-1 -5 -1 -8q0 -2 -0.5 -8.5t-0.5 -10.5v-13q-1 -4 -1.5 -11.5t-0.5 -11.5q-2 -12 -2 -14t0.5 -6
t1 -12.5t0.5 -15.5q1 -13 3 -37v-31l-1 -17q-1 -11 -1 -30q0 -37 9 -54q22 -42 28 -52v1q4 -6 25 -17h-1q3 -1 29 -18q6 -5 11 -5q7 0 37 6l-2 -1q4 2 9 2l47 -2q15 1 45 13h-1q33 20 37 27q3 3 14 22v-1q1 1 2 4t2.5 5.5t2.5 4.5q18 30 19 36q0 10 3 45l4 54v-1l4 89l-2 24
l-1 54v6l1 21q-1 1 -1 2q-1 7 -3 25q0 6 -6 19q-6 15 -10 55q-2 8 1 9h-1l-24 17q-3 2 -20 27zM444 830q39 0 39 -39q0 -26 -23 -42q-15 -12 -31 -13l-16 -2h-1l-2 -1q-9 -1 -18 -6l-15 -6l-6 -2q-26 -13 -30 -13q-16 0 -16 18q0 15 25 30q26 20 48 48q20 28 46 28z" />
    <glyph glyph-name="Ucircumflex" unicode="&#xdb;" horiz-adv-x="677" 
d="M475 616l1 -2q-11 8 -19 13q-20 12 -20 25q0 19 35 19q15 0 43 -4q2 0 11.5 -0.5t15.5 -0.5q1 0 3.5 0.5t4.5 0.5h21h42l27 1h3q24 0 24 -22q0 -15 -28 -42l-10 -6q-13 -5 -14 -6l2 1q-7 -7 -16 -29q-5 -12 -5 -27q0 -6 1 -16q1 -11 1 -32l2 -93l-2 -22v-19l-2 -26
l-1 -64q0 -5 3 -37q1 -7 1 -14q0 -18 -6 -46l-4 -17q0 -1 -0.5 -3l-0.5 -2l-4 -20q-1 -1 -3 -9v1q0 -1 -1 -3.5t-1.5 -4.5t-1.5 -4v1q-13 -36 -27 -51q-48 -54 -87 -63q-3 0 -5 -1q-12 -3 -20 -4l1 1q-14 -3 -45 -4q-25 -4 -41 -4q-38 0 -68 9q-79 24 -90 31h1q-22 9 -48 43
q-5 4 -10 12v-1q-19 22 -26 41q-12 37 -12 78v6l1 27l-2 33v-1l-4 21q0 24 -1 38q0 7 -0.5 19.5t-0.5 15.5q0 57 8 87v-3q0 1 1 3v5l-7 53q0 1 0.5 4.5t0.5 5.5q0 1 0.5 5t0.5 7v14q0 67 -30 82q-21 9 -24 15q-5 4 -5 13q0 23 33 23l23 1h13q4 -1 6 -1q13 0 28 1h30
q19 0 27 1h-1q6 1 33 1l37 1q37 0 37 -28q0 -13 -7 -21q-8 -8 -30 -14v1q-32 -12 -44 -35q-7 -19 -7 -42q-1 -9 -1 -26t1 -26l2 -22q0 -2 0.5 -7t0.5 -8q0 -8 1 -13v-5q-1 -5 -1 -8q0 -2 -0.5 -8.5t-0.5 -10.5v-13q0 -4 -1 -11t-1 -11q-2 -14 -2 -15q0 -2 0.5 -6t1 -12.5
t0.5 -15.5q1 -10 3 -36v-32l-1 -17q-1 -11 -1 -30q0 -37 9 -54q22 -42 28 -52v1q4 -6 25 -17h-1q3 -1 29 -18q6 -5 11 -5q7 0 37 6l-2 -1q4 2 9 2l47 -2q15 1 45 13h-1q33 20 37 27q1 1 14 22v-1q1 1 2 4t2.5 5.5t2.5 4.5q18 30 19 36v-1v1v1q0 11 3 44l4 54v-1l4 89l-2 24
l-1 54v6l1 21q-1 1 -1 2q-1 9 -3 26q0 4 -6 18q-5 14 -10 55q-2 8 1 9h-1l-24 17q-3 2 -20 27zM373 842q5 0 19 -4l2 -2q1 -3 2 -4q3 -3 11 -15l17 -24l9 -14l4 -8t5 -9q2 -4 8 -14q2 -5 4 -9t3 -6.5t1 -3.5l-1 2q6 -7 6 -16q0 -17 -18 -17q-10 0 -54 35q-21 33 -22 33
q-6 0 -14 -16q-11 -21 -24 -29q-2 -2 -4.5 -4t-6.5 -5l-8 -6q-11 -11 -21 -11q-17 0 -17 19q0 2 16 28h-1l10 17l15 23l-1 -1l7 12l16 20l2 4q4 13 9 18q9 7 26 7z" />
    <glyph glyph-name="Udieresis" unicode="&#xdc;" horiz-adv-x="677" 
d="M475 615l1 -2q-17 13 -19 14q-20 12 -20 24q0 20 35 20q15 0 43 -4q12 -2 27 -2q1 0 4 0.5t5 0.5h-1q7 1 21 1h42l27 1h3q24 0 24 -22q0 -17 -28 -42l-10 -6q-13 -5 -14 -6l2 1q-6 -6 -16 -29q-5 -12 -5 -28q0 -6 1 -15q1 -11 1 -33l2 -92l-2 -22v-19l-2 -26l-1 -64
q0 -5 3 -37q1 -7 1 -14q0 -18 -6 -46q-4 -15 -4 -18l-1 -2v-2l-4 -20q-1 -1 -3 -9v1q0 -1 -1.5 -5.5l-2.5 -7.5v1q-13 -35 -27 -50q-48 -54 -87 -63q-3 0 -5 -1q-12 -3 -20 -4l1 1q-14 -3 -45 -4q-25 -4 -41 -4q-38 0 -68 9q-79 24 -90 31h1q-21 9 -48 42q-5 5 -10 13v-1
q-19 22 -26 41q-12 37 -12 77v7l1 27l-2 33v-1l-4 21q0 24 -1 37q0 8 -0.5 20.5t-0.5 15.5q0 57 8 87v-3q0 1 1 3v4l-7 54q0 1 0.5 4.5t0.5 5.5q0 1 0.5 5t0.5 7v13q0 69 -30 82q-20 9 -24 16q-5 4 -5 13q0 23 33 23l23 1h13q4 -1 6 -1q13 0 28 1h30q19 0 27 1h-1q6 1 33 1
l37 1q37 0 37 -28q0 -12 -7 -22q-9 -9 -30 -13v1q-33 -12 -44 -36q-7 -17 -7 -42q-1 -8 -1 -25q0 -18 1 -26l2 -22q0 -2 0.5 -8t0.5 -8q0 -7 1 -12v-5q-1 -5 -1 -8q0 -2 -0.5 -8.5t-0.5 -10.5v-13q-1 -4 -1.5 -11.5t-0.5 -11.5q-2 -12 -2 -14t0.5 -6t1 -12.5t0.5 -15.5
q1 -13 3 -37v-31l-1 -17q-1 -11 -1 -30q0 -37 9 -54q22 -42 28 -52v1q4 -6 25 -17h-1q3 -1 29 -18q6 -5 11 -5q7 0 37 6l-2 -1q4 2 9 2l47 -2h-1q20 2 46 13h-1q33 20 37 27q3 3 14 22v-1q1 1 2 4t2.5 5.5t2.5 4.5q18 30 19 36v-1q0 10 3 46l4 54v-1l4 89l-2 24l-1 54v6
l1 21q-1 1 -1 2q-1 7 -3 25q0 6 -6 19q-6 15 -10 55q-2 7 1 8h-1l-24 18q-2 2 -20 26zM284 821q13 0 36 -16q12 -8 15 -20q0 -8 1 -15v1q3 -14 3 -18q0 -9 -7 -19v1q-8 -21 -17 -26.5t-30 -5.5q-12 0 -30 12v-1q-26 16 -26 45q0 17 15 36q25 26 40 26zM456 814h6q20 0 32 -9
q22 -14 22 -48q0 -13 -5 -26l1 1q-1 -12 -21 -20q-17 -10 -29 -10q-46 0 -46 64q0 18 12 33t28 15z" />
    <glyph glyph-name="Yacute" unicode="&#xdd;" horiz-adv-x="547" 
d="M297 0q-2 0 -5 -1q-2 0 -6 -0.5t-5 -0.5q-8 -1 -18 -1q-8 0 -13 1h1q-10 1 -16 1l-14 -1h-26q-28 0 -28 20q0 14 13 20l21 10h-1q3 2 26 34q14 17 14 25v4q-1 10 -1 18l3 58q0 15 3 44q0 3 1 7l-4 52q-2 22 -3 37l-2 3q-2 3 -8 13.5t-12 20.5q-7 13 -23 41q-6 10 -9 16
q-5 7 -20 26q-17 22 -26 38q-3 7 -18 33l1 -2q-1 0 -2.5 2t-1.5 3q-24 39 -27 41l-20 19l-17 20v-1l-14 12h2q-24 15 -29 20q-7 7 -7 16q0 8 7 15q3 4 44 6q29 3 33 3q7 0 30 -4q8 0 14 1q14 2 20 2l3 -1h6q2 0 7 -0.5t8 -0.5q2 -1 20 -1q38 0 38 -25q0 -10 -10 -20l-15 -17
q-5 -5 -5 -13q0 -15 29 -57q17 -28 22 -33l18 -19q10 -10 18 -26h-1l15 -24l9 -20q22 0 62 84q7 20 11 24l25 33q10 10 10 21t-8 24q-3 1 -4 4q-4 2 -7 8l-1 1q-6 4 -16 12h1q-8 5 -8 18q0 25 38 25h10q3 0 8 -0.5t7 -0.5q7 -1 14 -1h2q2 1 6.5 1.5t9.5 1.5t15 1t39 -4
q36 -6 36 -27v-2q0 -12 -6 -17.5t-37 -21.5q-12 -7 -31 -30l-2 -3q-1 0 -7.5 -7t-12.5 -14q-4 -5 -22 -41l-14 -22v1l-11 -17l-7 -10l-5 -7l-9 -14l-28 -42q-11 -13 -19 -29v1q-4 -13 -4 -40v-75q-3 -25 -3 -26t2 -11q1 -6 1 -19v-3l-1 -44l-1 -31v-6q0 -19 6 -33
q6 -11 27 -31h-1q21 -16 21 -30q0 -17 -16 -17h-2l-19 1q-5 -1 -22 -1zM379 830q38 0 38 -39q0 -26 -22 -42q-16 -13 -31 -14l-16 -2l-1 -1h-2q-11 -2 -19 -5q-2 -1 -7 -3t-7 -3l-6 -2q-26 -13 -30 -13q-16 0 -16 18q0 13 25 30q28 22 48 48q21 28 46 28z" />
    <glyph glyph-name="Thorn" unicode="&#xde;" horiz-adv-x="475" 
d="M79 671l57 -3q33 4 47 4q51 0 51 -34q0 -11 -14 -22q-14 -12 -17 -19v1q-10 -30 -10 -51q0 -7 -2 -7l11 1l9 -1l3 1l28 -1q3 0 8.5 -0.5t8.5 -0.5q14 0 19 -1h-2q4 -2 9 -3l-1 1q3 -1 8.5 -2.5t9.5 -2.5h-1q78 -6 133 -118q13 -30 16 -39q3 -22 3 -39q0 -77 -51 -123v1
q-37 -42 -64 -48h1l-18 -5q-29 -8 -39 -8h-20l-30 -3l-26 2h-1q-8 0 -8 -23q0 -7 1 -13q0 -2 0.5 -6t0.5 -6q0 -3 0.5 -6t0.5 -4l8 -12q6 -21 18 -30q13 -13 13 -26q0 -25 -19 -25h-29q-3 0 -4 -1q-8 -1 -20 -1q-1 0 -3.5 0.5t-4.5 0.5t-6 0.5t-7 0.5l-42 -1h-5q-12 0 -34 8
q-12 6 -12 22q0 10 7 17l25 21l-2 -1q6 8 8 25q1 14 5 42v6q0 4 -2 16q-1 7 -1 20q0 17 1 30q0 3 0.5 7.5t0.5 6.5q3 30 3 42q0 5 -3 37v-1q-1 3 -1.5 11t-0.5 11l3 32v2q-1 2 -1 3t-0.5 5.5t-0.5 7.5v99q0 4 -1 9q-1 12 -3 40q0 2 -0.5 6t-0.5 6l-1 53q-1 14 -20 33h1
q-20 14 -20 29q0 26 30 27zM268 474l-23 -1l-18 1h-1q-12 0 -25 -22q-9 -16 -9 -28q0 -7 1 -13q0 -3 0.5 -9.5t0.5 -7.5q0 -10 -1 -18q-1 -12 -1 -22v-28l-1 -25q-3 -17 -3 -18q0 -4 1 -7q0 -1 0.5 -3t0.5 -4q0 -5 1 -8q0 -1 0.5 -3t0.5 -3q7 -45 23 -45h1l32 6q24 1 32 3
l-1 -1q15 4 32 26l2 4q3 4 5 5h-1l14 20l8 40q8 28 8 29q-2 4 -5 21q-2 6 -3 30q0 1 -0.5 5.5t-0.5 6.5q0 8 -8 19q-4 2 -24 22q-4 4 -12.5 11.5t-13.5 12.5q-4 2 -12 4z" />
    <glyph glyph-name="germandbls" unicode="&#xdf;" horiz-adv-x="460" 
d="M240 619h17q39 -1 71 -24q38 -30 42 -81q4 -13 6 -35l1 -5v-5q0 -23 -28 -58q-12 -16 -17 -21l-26 -20q-14 -11 -14 -20q0 -4 21 -17l8 -4l10 -5q60 -33 83 -70h-1q3 -4 16 -22h-1l5 -5q10 -17 11 -35q0 -6 1 -11q0 -3 1 -5v1q4 -16 4 -29q0 -10 -15 -62q-15 -42 -54 -65
q-1 -1 -22 -12q-1 -1 -5 -4t-5 -3q-15 -6 -36 -7h-14l-21 -2q-26 0 -60 18q-34 16 -40 52v-12q0 -3 0.5 -9t0.5 -8q0 -36 -46 -36q-13 0 -20 1q-18 2 -20 2q-14 0 -24 -1h1q-5 -1 -16 -1q-35 0 -35 24q0 11 5 16l31 23q7 4 12 19v3q0 2 0.5 6.5t1 13.5t0.5 17q0 11 2 29
q1 8 1 12t-2 28q0 5 -1.5 17t-1.5 17q0 22 10 67v-1q0 1 0.5 3t0.5 3v1q1 1 1 2l-1 3v5t-0.5 7.5t-0.5 9.5v10q0 6 -1 14q-1 7 -1 19v31v27q0 13 8 42q1 5 4 16t4 13q1 5 6 16l9 14q2 3 6.5 10.5l7.5 12.5q2 3 6 8.5t6 8.5t5.5 8.5t5.5 8.5q36 36 97 36zM178 105v-18
q3 18 14 34q12 20 34 20q28 0 41 -21q5 -12 5 -17q0 -1 -3 -25q-2 -10 -2 -12l-2 -16q0 3 2 1q18 -6 25 -6q16 2 30 24q9 12 11 45q0 8 0.5 15.5t1 10.5t0.5 4q0 9 -8 40l1 -1q-2 6 -4 32l1 -2q-9 23 -34 53l-20 21q-6 5 -16 11l-8 6h1q-21 13 -21 46q0 9 13 30q11 17 12 26
q2 2 11 17q15 27 15 45q0 42 -20 65q-15 18 -31 18q-17 0 -31 -18l1 3q-1 -1 -3.5 -4.5t-2.5 -4.5q-11 -13 -11 -14q-5 -10 -5 -75q0 -3 3 -22v-18q0 -32 -4 -72l-1 -5h-19q21 -11 21 -24l-1 -25q0 -24 4 -52v-8l-2 -38q0 -3 1 -7q1 -8 1 -62z" />
    <glyph glyph-name="agrave" unicode="&#xe0;" 
d="M176 293q-10 14 -15 15h-10l-12 -2l-3 -3q-1 -1 -3 -4t-4 -5q-9 -9 -19 -16q-15 -11 -24 -11q-26 0 -26 32q0 27 22 46l-1 -1q8 8 34 16l-1 -1l11 6q17 9 29 9q36 0 53 -7q26 -10 50 -47q12 -20 12 -45v-6q0 -2 -0.5 -6t-0.5 -6l-1 -124q0 -15 1 -26q3 -11 15 -26
q5 -6 6 -6l19 -8q5 -5 5 -12q0 -10 -17 -31q-23 -32 -50 -32q-11 0 -23 6l-13 10l-3 3q-2 1 -4.5 3t-3.5 2q1 -1 -4 -3h1q-42 -21 -75 -21q-44 0 -79 35q-11 12 -12 27q-1 3 -1 7l-1 1v3q-1 4 -1.5 8t-1 6t-0.5 3q0 4 2 10v11q0 2 0.5 7t0.5 8q1 18 13 36q22 29 67 53l6 2
q3 1 13 6t18 8q19 5 33 19q11 13 11 23q0 3 -14 29zM102 519q8 0 21 -7q2 -1 41 -43l8 -8l-1 1q6 -3 14 -11q21 -18 21 -34q0 -19 -19 -19q-6 0 -36 13v-1l-38 12l-9 3q-1 1 -4.5 2.5t-4.5 1.5l1 -1q-1 0 -4.5 1.5t-9.5 4t-12 4.5q-14 9 -14 29q0 19 14.5 35.5t31.5 16.5z
M192 189q0 5 -1 7q-7 -2 -19 -14q-2 -1 -9 -8q-22 -16 -26 -22q-23 -29 -23 -53q0 -14 10 -22q18 -14 39 -14t25 40q0 8 1 14v-1q0 2 1.5 13.5t2.5 18.5t1 12l-1 19q0 2 -0.5 5.5t-0.5 4.5z" />
    <glyph glyph-name="aacute" unicode="&#xe1;" 
d="M176 293q-11 14 -15 15h-10l-12 -2l-3 -4q-1 -1 -3 -3.5t-4 -4.5q-9 -9 -19 -16q-15 -11 -24 -11q-26 0 -26 31q0 28 22 47l-1 -1q7 6 34 16l-1 -1l11 6q17 9 29 9q36 0 53 -7q26 -10 50 -47q12 -19 12 -46v-5q0 -2 -0.5 -6t-0.5 -6l-1 -124q0 -16 1 -26q3 -11 15 -26
q5 -6 6 -6l19 -8q5 -5 5 -12q0 -11 -17 -31q-23 -32 -50 -32q-11 0 -23 6l-13 10l-3 3q-2 1 -4.5 3t-3.5 2q1 -1 -4 -3h1q-42 -21 -75 -21q-44 0 -79 35q-11 12 -12 27q-1 3 -1 7l-1 1v3q-1 4 -1.5 8t-1 6t-0.5 3q0 4 2 9v12q0 2 0.5 6.5t0.5 7.5q1 17 13 37q22 29 67 53
l6 2q27 12 31 13q19 6 33 20q11 13 11 23q0 3 -14 29zM239 510q38 0 38 -37q0 -24 -22 -40q-15 -11 -30 -12l-16 -2h1q-1 0 -5 -1t-9 -2.5t-10 -3.5h-1q-1 -1 -2 -1l4 1q-6 -3 -12 -5l2 1q-1 0 -10 -4.5t-17 -7.5q-3 -3 -8 -3q-19 0 -19 18q0 12 27 29l-1 -1q29 21 46 44
q20 27 44 27zM192 189q0 5 -1 6q-8 -2 -19 -13q-2 -1 -9 -8q-22 -16 -26 -22q-23 -29 -23 -53q0 -14 10 -22q18 -14 39 -14t25 40q0 8 1 14v-1q0 2 1.5 13.5t2.5 18.5t1 12l-1 19q0 2 -0.5 5.5t-0.5 4.5z" />
    <glyph glyph-name="acircumflex" unicode="&#xe2;" 
d="M176 293q-10 15 -15 15h-10q-11 0 -12 -1l-3 -4q-1 -1 -3 -4t-4 -5q-9 -9 -19 -15q-15 -12 -24 -12q-26 0 -26 32q0 28 22 46l-1 -1q7 7 34 17l-1 -1l11 5q17 9 29 9q36 0 53 -7q24 -8 50 -47q12 -18 12 -45v-6q0 -2 -0.5 -6t-0.5 -6l-1 -124q0 -15 1 -26q3 -11 15 -26
q5 -6 6 -6l19 -8q5 -5 5 -12q0 -10 -17 -31q-23 -32 -50 -32q-11 0 -23 6l-13 10l-4 4q-1 1 -2.5 1.5t-3.5 1.5l-1 1q1 -1 -4 -3h1q-42 -21 -75 -21q-44 0 -79 35q-11 12 -12 27q-1 3 -1 7l-1 1v3q-1 4 -1.5 8t-1 6t-0.5 3q0 4 2 10v11q0 2 0.5 7t0.5 8q1 18 13 36
q20 28 67 53l6 2q3 1 13 6t18 8q21 7 33 19q11 14 11 23q0 4 -14 29zM171 528q6 0 19 -5q1 -2 7 -11l6 -9l16 -22l9 -12q1 -2 5 -8q10 -19 13 -24q2 -5 4 -11q0 -1 2 -3q5 -7 5 -14q0 -18 -18 -18q-7 0 -52 34q-7 9 -12 16.5l-7 10.5t-1 3q-6 0 -15 -16q-7 -14 -9.5 -16.5
t-15.5 -10.5q-5 -3 -16 -14q-9 -9 -19 -9q-16 0 -16 19q4 11 15 26l-1 -1l9 19l14 19l-1 -1l7 11l15 18q10 21 15.5 25t21.5 4zM192 189q0 5 -1 7q-7 -2 -19 -14q-2 -1 -9 -8q-22 -16 -26 -22q-23 -29 -23 -53q0 -14 10 -22q18 -14 39 -14t25 39q0 9 1 15v-1q0 2 1.5 13.5
t2.5 18.5t1 12l-1 19q0 2 -0.5 5.5t-0.5 4.5z" />
    <glyph glyph-name="atilde" unicode="&#xe3;" 
d="M176 292q-11 14 -15 16h-10l-12 -2l-3 -4q-1 -1 -3 -4t-4 -5q-1 0 -7 -5.5t-12 -9.5q-15 -12 -24 -12q-26 0 -26 32q0 28 22 46l-1 -1q7 7 34 17l-1 -1l11 6q18 8 29 8q36 0 53 -7q24 -8 50 -47q12 -18 12 -45v-6q0 -1 -0.5 -5t-0.5 -6l-1 -124q0 -16 1 -26q3 -13 15 -26
q5 -6 6 -6l19 -8q5 -8 5 -12q0 -11 -17 -31q-23 -32 -50 -32q-11 0 -23 6l-13 10l-4 4q-1 1 -2.5 1.5t-3.5 1.5l-1 1q1 -1 -4 -3h1q-42 -21 -75 -21q-44 0 -79 35q-11 12 -12 27q-1 3 -1 7q0 1 -1 3q-1 4 -1.5 8.5t-1 6.5t-0.5 3q0 4 2 9v12q0 2 0.5 6.5t0.5 7.5q1 17 13 37
q21 27 67 53l6 2q3 1 13 5.5t18 7.5q18 6 33 19q11 14 11 24q0 3 -14 28zM129 496h8q12 -4 30 -13l-1 1l16 -5q35 -19 39 -19q14 0 34 16q2 1 5 4q19 0 19 -14v-2q0 -5 -21 -34q-10 -14 -20 -24q-19 -12 -32 -12q-12 0 -29 5q-7 1 -27 13q-7 2 -28 9q-21 8 -26 8q-4 0 -9 -6
q-12 -17 -20 -17q-17 0 -17 18q0 14 14 25v-1l13 14q25 34 52 34zM192 189q0 4 -1 6q-6 -1 -19 -13q-2 -1 -9 -8q-22 -16 -26 -22q-23 -29 -23 -53q0 -14 10 -22q18 -14 39 -14t25 40q0 8 1 13v-1l1 13q2 12 3 20q1 7 1 12l-1 19q0 2 -0.5 5.5t-0.5 4.5z" />
    <glyph glyph-name="adieresis" unicode="&#xe4;" 
d="M151 308l-12 -2l-3 -4q-1 -1 -3 -4t-4 -5q-1 0 -7 -5.5t-12 -9.5q-15 -12 -24 -12q-26 0 -26 32q0 28 22 46l-1 -1q7 7 34 17l-1 -1l11 6q18 8 29 8q36 0 53 -7q24 -8 50 -47q12 -18 12 -45v-6q0 -1 -0.5 -5t-0.5 -6l-1 -124q0 -16 1 -26q3 -13 15 -26q5 -6 6 -6l19 -8
q5 -8 5 -12q0 -11 -17 -31q-23 -32 -50 -32q-11 0 -23 6l-13 10l-3 3q-2 1 -4.5 3t-3.5 2q1 -1 -4 -3h1q-42 -21 -75 -21q-44 0 -79 35q-11 12 -12 27q-1 3 -1 7q0 1 -1 3q-1 4 -1.5 8.5t-1 6.5t-0.5 3q0 4 2 9v12q0 2 0.5 6.5t0.5 7.5q1 17 13 37q21 27 67 53l6 2
q3 1 13 5.5t18 7.5q18 6 33 19q11 14 11 24q0 3 -14 28l1 -1q-11 14 -15 16h-10zM211 496q13 0 30 -9q24 -13 24 -42q0 -19 -24 -40q-13 -13 -24 -13q-21 0 -41 20q-9 9 -10 25l-2 13q0 3 6.5 18t9.5 18q10 10 31 10zM107 497q9 0 28 -12q4 -6 9 -20q1 -3 1.5 -7t1.5 -6.5
t1 -3.5l1 -6q0 -19 -14 -35q-10 -10 -22 -10q-45 0 -52 34q-3 9 -4 17q0 24 9 34q16 15 41 15zM192 189q0 4 -1 6q-6 -1 -19 -13q-2 -1 -9 -8q-22 -16 -26 -22q-23 -29 -23 -53q0 -14 10 -22q18 -14 39 -14t25 40q0 8 1 13v-1l1 13q2 12 3 20q1 7 1 12l-1 19q0 2 -0.5 5.5
t-0.5 4.5z" />
    <glyph glyph-name="aring" unicode="&#xe5;" 
d="M176 293q-10 14 -15 15h-10q-7 -1 -12 -1l-3 -4q-1 -1 -3 -4t-4 -5q-9 -9 -19 -15q-15 -12 -24 -12q-26 0 -26 32q0 28 22 46l-1 -1q8 8 34 16h-1l11 5q17 9 29 9q36 0 53 -7q26 -10 50 -47q12 -20 12 -45v-6q0 -2 -0.5 -6t-0.5 -6l-1 -124q0 -15 1 -26q3 -11 15 -26
q5 -6 6 -6l19 -8q5 -5 5 -12q0 -10 -17 -31q-23 -32 -50 -32q-11 0 -23 6l-13 10l-4 4q-1 1 -2.5 1.5t-3.5 1.5l-1 1q1 -1 -4 -3h1q-42 -21 -75 -21q-44 0 -79 35q-11 12 -12 27q-1 3 -1 7l-1 1v3q-1 4 -1.5 8t-1 6t-0.5 3q0 4 2 10v11q0 2 0.5 7t0.5 8q1 18 13 36
q20 28 67 53l6 2q3 1 13 6t18 8q19 5 33 19q11 14 11 23q0 4 -14 29zM170 525h1q8 0 26 -8t25 -14q8 -10 14 -27l2 -12q0 -23 -9 -37q-22 -36 -63 -36q-59 0 -59 74q0 27 37 52q14 8 26 8zM192 189q0 5 -1 7q-7 -2 -19 -14q-2 -1 -9 -8q-22 -16 -26 -22q-23 -29 -23 -53
q0 -14 10 -22q18 -14 39 -14t25 40q0 8 1 14v-1q0 2 1.5 13.5t2.5 18.5t1 12l-1 19q0 2 -0.5 5.5t-0.5 4.5zM167 477q-4 0 -8.5 -6t-4.5 -11q0 -6 4 -10q3 -5 7 -9l11 1q6 0 11 9q3 6 3 9q0 4 -11 13q-5 4 -12 4z" />
    <glyph glyph-name="ae" unicode="&#xe6;" horiz-adv-x="494" 
d="M179 290q-9 13 -15 14h-18q-2 0 -13 -13q-10 -10 -20 -17q-15 -11 -25 -11q-27 0 -27 31q0 28 23 46q3 3 34 15l-1 -1l11 6q15 8 30 8q43 0 56 -6q23 -11 38 -31l8 -8q4 0 10 6q44 38 89 38q50 0 95 -39q38 -35 38 -66q0 -43 -39 -43q-10 0 -15 1h-6l-4 1q-15 0 -25 -1
q-2 0 -6 -0.5t-5 -0.5q-7 -1 -17 -1h-15q-15 0 -21 1h1q-27 3 -33 3q-16 0 -27 -10q-3 -2 -3 -12l1 -2v-4q0 -1 0.5 -4.5t0.5 -4.5q3 -36 4 -37q10 -18 35 -38t32 -22v1q16 -5 30 -5q36 0 66 11l1 1h2l-4 -1l12 6q6 2 10 2q16 0 16 -17q0 -4 -6 -18l1 1v-2q-1 -2 -1 -3
q-5 -23 -19 -35v1q-2 -2 -14 -11q-9 -6 -32 -18q-20 -9 -60 -9q-13 0 -40 10q-8 3 -18 7l-9 4q-15 11 -21 22q-9 12 -12 12q-10 0 -51 -31q-35 -24 -77 -24q-46 0 -82 36q-5 5 -15 41v8q0 43 7 60q8 25 63 59h-1q27 17 55 25q15 4 30 16q13 13 13 24q0 3 -15 29zM202 186
q0 6 -1 8q-4 -1 -23 -15l-7 -7q-24 -16 -31 -23h1q-24 -27 -24 -51q0 -14 11 -22q17 -14 40 -14q11 0 14 3q35 26 35 35l-1 1q0 1 -0.5 2.5t-1 4t-1.5 4.5q-8 23 -10 65q0 1 -0.5 4t-0.5 5zM345 314q-23 0 -38 -16q-10 -10 -10 -22q0 -3 2 -3q17 -5 85 -5q16 0 16 5
q0 14 -17 29q-13 12 -38 12z" />
    <glyph glyph-name="ccedilla" unicode="&#xe7;" horiz-adv-x="317" 
d="M288 73l4 1q16 0 16 -14q0 -10 -15 -22q-1 0 -3.5 -2t-3.5 -3q-7 -7 -11 -10q-13 -10 -20 -14q-5 -5 -8 -7q-9 -5 -31 -9l-8 -2q0 -1 -3 0l19 -8q5 -5 14 -19t9 -18l-4 -18l1 -13q0 -14 -12 -26v1q-27 -25 -47 -25q-30 0 -40 7q-9 4 -22 22v-1q-11 12 -11 27q0 9 9 19
t19 10q12 0 26 -26q0 -3 20 -3q7 0 7 7v9l-28 14q-9 6 -9 19q0 6 1 15q1 3 1 16h-1q-33 5 -72 39l-8 10q-1 1 -3 4q-7 7 -10 13q-11 14 -23 38q-2 8 -6 37q-9 41 -9 54q0 69 48 122q42 49 96 53l-1 -1q6 2 44 2q34 0 43 -3q30 -9 47 -34q12 -20 12 -37q0 -14 -11 -26.5
t-24 -12.5q-32 0 -63 41q-11 14 -19 15q-10 2 -34 2q-14 0 -33 -27q-13 -19 -13 -74v-8q0 -2 0.5 -4.5t0.5 -3.5v-25h-4q15 -18 27 -50q14 -30 24 -44q6 -9 21 -18q12 -9 21 -9h14q18 2 39 8l7 2l8 2l-5 -1q9 5 17 9zM223 -16h1h-1z" />
    <glyph glyph-name="egrave" unicode="&#xe8;" horiz-adv-x="306" 
d="M175 373q57 0 106 -55q23 -26 23 -52q0 -43 -38 -43q-9 0 -14 1h-10h-25q-1 0 -5 -0.5t-5 -0.5q-6 -1 -17 -1h-14q-15 0 -20 1h1q-7 0 -15 0.5t-12 1t-6 0.5q-17 0 -26 -10q-3 -1 -3 -12q0 -6 1 -15q5 -38 6 -40q5 -12 33 -36q20 -18 31 -22v1q18 -6 29 -6q13 0 53 8
q8 2 22 9q6 3 10 3q16 0 16 -17q0 -8 -5 -17q-2 -4 -2 -6h1q-5 -20 -18 -34q-1 -1 -3 -2.5t-5 -4.5t-6 -5q-10 -6 -31 -18q-19 -9 -59 -9q-10 0 -41 11l-10 5q-13 5 -14 5q-15 10 -28 31q-19 27 -35 55q-15 50 -15 66q0 3 6 39q9 64 30 90v-2q14 23 31 45q40 36 83 36z
M130 519q10 0 22 -8l-1 1q3 -2 40 -43q1 -1 4 -3.5t5 -4.5l-1 1q4 -3 14 -11q20 -17 20 -34q0 -19 -18 -19q-5 0 -37 13l1 -1l-38 12l-9 3q-1 1 -4.5 2.5t-4.5 1.5l1 -1q-2 0 -5 1.5t-9 4t-12 4.5q-14 9 -14 29q0 19 14 35.5t32 16.5zM161 319q-22 0 -37 -17q-9 -12 -9 -22
q0 -3 2 -3q15 -5 83 -5q15 0 15 5q0 15 -17 30q-14 12 -37 12zM103 13h1h-1z" />
    <glyph glyph-name="eacute" unicode="&#xe9;" horiz-adv-x="306" 
d="M175 373q56 0 106 -55q23 -27 23 -52q0 -44 -38 -44q-9 0 -14 1q-3 0 -6 1h-4q-14 0 -25 -1q-1 0 -5 -0.5t-5 -0.5q-6 -1 -17 -1h-14q-15 0 -20 1h1q-27 3 -33 3q-16 0 -26 -10q-3 -1 -3 -12q0 -7 1 -15q5 -38 6 -40q5 -12 33 -36q22 -21 31 -22v1q18 -6 29 -6q13 0 53 8
q8 2 22 9q6 3 10 3q16 0 16 -17q0 -8 -5 -17q-2 -4 -2 -6h1q-6 -22 -18 -34q-1 -1 -3 -2.5t-5 -4.5t-6 -5q-10 -6 -31 -18q-19 -9 -59 -9q-10 0 -41 11l-10 5q-13 5 -14 5q-15 10 -28 31q-19 27 -35 55q-15 50 -15 66q0 3 6 39q9 64 30 90v-2q14 23 31 45q40 36 83 36z
M260 510q38 0 38 -37q0 -24 -22 -40q-15 -11 -30 -12l-16 -2h1q-1 0 -5 -1t-9 -2.5t-10 -3.5h-1l-2 -1l4 1q-6 -3 -12 -5l2 1q-1 0 -10 -4.5t-17 -7.5q-3 -3 -8 -3q-18 0 -18 18q0 12 26 29l-1 -1q29 21 46 44q20 27 44 27zM161 319q-22 0 -37 -18q-9 -11 -9 -21q0 -2 2 -4
q12 -4 83 -4q15 0 15 4q0 16 -17 31q-14 12 -37 12zM103 13h1h-1z" />
    <glyph glyph-name="ecircumflex" unicode="&#xea;" horiz-adv-x="306" 
d="M175 373q57 0 106 -55q23 -26 23 -52q0 -43 -38 -43q-9 0 -14 1h-6l-4 1q-14 0 -25 -1q-1 0 -5 -0.5t-5 -0.5q-6 -1 -17 -1h-14q-15 0 -20 1h1q-27 3 -33 3q-16 0 -26 -11q-3 -1 -3 -12q0 -6 1 -15q5 -38 6 -40q5 -12 33 -36q20 -18 31 -22v1q18 -6 29 -6q15 0 53 9
q8 1 22 8q6 3 10 3q16 0 16 -17q0 -8 -5 -17q-2 -4 -2 -6h1q-5 -20 -18 -34q-1 -1 -3 -2.5t-5 -4.5t-6 -5q-10 -6 -31 -18q-19 -9 -59 -9q-10 0 -41 11l-10 5q-13 5 -14 5q-15 10 -28 31q-19 27 -35 55q-15 50 -15 66q0 3 6 39q9 66 30 90v-2q10 18 31 45q39 36 83 36z
M174 528q6 0 18 -5q2 -3 8 -11l5 -9l16 -22l9 -12q1 -2 5 -8q5 -10 13 -24q2 -5 4 -11q0 -1 2 -3q5 -7 5 -14q0 -18 -17 -18q-8 0 -53 34q-7 9 -11.5 16.5t-6.5 10.5t-1 3q-8 0 -15 -16q-6 -13 -9 -16t-16 -11q-9 -5 -16 -14q-10 -9 -20 -9q-16 0 -16 19q2 6 15 26l-1 -1
l10 19l14 19l-1 -1l6 11l15 18q10 21 16 25t22 4zM161 319q-22 0 -37 -17q-9 -12 -9 -21q0 -2 2 -4q15 -5 83 -5q15 0 15 5q0 14 -17 31q-14 11 -37 11zM103 13h1h-1z" />
    <glyph glyph-name="edieresis" unicode="&#xeb;" horiz-adv-x="306" 
d="M175 372q57 0 106 -55q23 -26 23 -52q0 -43 -38 -43q-9 0 -14 1q-3 0 -6 1h-4q-14 0 -25 -1q-1 0 -5 -0.5t-5 -0.5q-6 -1 -17 -1h-14q-15 0 -20 1h1q-27 3 -33 3q-16 0 -26 -10q-3 -1 -3 -12q0 -7 1 -15q5 -37 6 -40q4 -12 33 -36q21 -20 31 -23v1q20 -5 29 -5q13 0 53 8
q8 2 22 9q6 3 10 3q16 0 16 -17q0 -8 -5 -17q-2 -4 -2 -7h1q-6 -21 -18 -33q-1 -1 -3 -2.5t-5 -4.5t-6 -5q-10 -6 -31 -18q-19 -9 -59 -9q-10 0 -41 11l-10 5q-13 5 -14 5q-15 10 -28 31q-19 27 -35 55q-15 50 -15 65q0 4 6 40q9 65 30 89v-2q8 15 31 46q39 35 83 35z
M231 496q14 0 30 -9q24 -13 24 -42q0 -19 -24 -40q-13 -13 -24 -13q-21 0 -41 20q-8 8 -9 25l-3 13q0 3 6.5 18t9.5 18q10 10 31 10zM127 497q11 0 28 -12q3 -3 9 -20q1 -3 1.5 -7t1.5 -6.5t1 -3.5l1 -6q0 -19 -14 -35q-10 -10 -22 -10q-43 0 -52 34q-3 9 -4 17q0 24 10 34
q15 15 40 15zM161 318q-23 0 -37 -17q-9 -12 -9 -21q0 -2 2 -4q15 -5 83 -5q15 0 15 5q0 14 -17 31q-12 11 -37 11zM103 13h1h-1z" />
    <glyph glyph-name="igrave" unicode="&#xec;" horiz-adv-x="195" 
d="M68 143v20q0 23 -2 51l1 -2q-1 6 -1 9v2q0 9 1 14l1 10l3 23q0 1 -1.5 2.5t-3 3.5t-2.5 4l-5 5q-12 10 -14 12.5t-2 8.5v2q0 13 9 20l16 9h-1l26 15q16 6 20 8l7 4h-1q9 6 17 6q17 0 17 -21q0 -11 -3 -29q-1 -5 -1 -9q0 -12 1 -20q0 -5 0.5 -12.5t0.5 -8.5q0 -20 -3 -55
q-1 -3 -1 -9q0 -11 1 -18q2 -16 2 -19v-9q-1 -4 -1 -11q0 -68 12 -95v1q2 -5 6 -13l-1 1q10 -18 10 -24q0 -21 -31 -21q-1 0 -4.5 0.5t-6.5 0.5q-2 0 -8 0.5t-9 0.5h-15q-2 0 -8.5 -0.5t-10.5 -0.5q-9 -1 -22 -1q-22 0 -22 21q0 12 18 30h-1q8 10 8 18q0 2 -1 6v8q0 8 1 12
v-1q0 2 0.5 5t0.5 4q0 5 0.5 9.5t1 6.5t0.5 3q1 7 1 23zM45 519q9 0 21 -8q5 -3 38 -42l7 -7q8 -6 14 -11q19 -17 19 -34q0 -19 -17 -19q-6 0 -35 13v-1l-36 12l-9 3q-1 0 -2 1q-5 2 -6 3v-1q-7 3 -25 10q-13 9 -13 29q0 19 13.5 35.5t30.5 16.5z" />
    <glyph glyph-name="iacute" unicode="&#xed;" horiz-adv-x="195" 
d="M68 142v21q0 23 -2 51l1 -2q-2 6 -2 8v3q0 4 2 14l1 9l3 23l-3 6q-3 3 -4 5l-5 5q-12 9 -14 11.5t-2 9.5v2q0 11 9 20l16 9h-1l26 14q5 2 12 5t8 4l7 4h-1q9 6 16 6q17 0 17 -22q0 -16 -2 -28q-1 -5 -1 -9q0 -13 1 -20q0 -5 0.5 -13t0.5 -9q0 -19 -3 -54q-1 -3 -1 -9
q0 -11 1 -18q2 -16 2 -20v-8q-1 -4 -1 -11q0 -68 12 -95v1q2 -5 6 -13l-1 1q10 -18 10 -24q0 -21 -31 -21q-1 0 -4.5 0.5t-6.5 0.5q-2 0 -8 0.5t-9 0.5h-15q-2 0 -8.5 -0.5t-10.5 -0.5q-9 -1 -22 -1q-22 0 -22 21q0 12 18 30h-1q8 10 8 18q0 2 -1 6v8q0 8 1 12v-1q0 2 0.5 5
t0.5 4q0 5 0.5 9.5t1 6.5t0.5 3q1 7 1 22zM177 510q36 0 36 -37q0 -23 -21 -40q-13 -10 -29 -12l-15 -2h1q-15 -4 -23 -7h-1q-1 -1 -2 -1l3 1q-3 -2 -11 -5l2 1q-2 -1 -10.5 -5t-15.5 -7q-3 -3 -8 -3q-18 0 -18 18q0 12 26 29l-1 -1q25 17 45 44q18 27 42 27z" />
    <glyph glyph-name="icircumflex" unicode="&#xee;" horiz-adv-x="195" 
d="M68 143v20q0 23 -2 51l1 -2q-2 6 -2 9v3q0 3 2 13l1 10l3 23q0 1 -7 10l-5 5q-12 10 -14 12.5t-2 8.5v2q0 12 9 21l16 8h-1l26 15q4 2 11 4.5t9 3.5l7 4h-1q9 6 16 6q17 0 17 -21q0 -17 -2 -29q-1 -5 -1 -9q0 -12 1 -20q0 -5 0.5 -12.5t0.5 -8.5q0 -20 -3 -55
q-1 -3 -1 -9q0 -10 1 -18q2 -16 2 -19v-9q-1 -4 -1 -11q0 -68 12 -95v1q2 -5 6 -13l-1 1q10 -18 10 -24q0 -21 -31 -21q-1 0 -4.5 0.5t-6.5 0.5q-2 0 -8 0.5t-9 0.5h-15q-2 0 -8.5 -0.5t-10.5 -0.5q-9 -1 -22 -1q-22 0 -22 21q0 12 18 30h-1q8 10 8 18q0 2 -1 6v8q0 8 1 12
q0 1 0.5 3.5t0.5 4.5q0 5 0.5 9.5t0.5 7.5l1 2q1 7 1 23zM111 528q7 0 18 -6q2 -3 7 -10l6 -9l15 -22l9 -13l2 -2q1 -3 2 -5q10 -19 13 -24q2 -5 4 -11q0 -2 1 -3q6 -7 6 -14q0 -18 -17 -18q-8 0 -51 34q-6 9 -10.5 16.5t-6.5 10.5t-1 3q-6 0 -15 -17q-8 -16 -20 -24
q-2 -2 -4 -3q-7 -4 -15 -13q-10 -10 -19 -10q-15 0 -15 20q2 7 14 26l-1 -1l9 19l14 19l-1 -1l6 11l14 18q10 21 15 25t21 4z" />
    <glyph glyph-name="idieresis" unicode="&#xef;" horiz-adv-x="195" 
d="M68 142v20q0 25 -2 51l1 -1q-2 5 -2 8v3q0 4 2 14l1 9l3 23v-1q0 3 -7 12l-5 5q-12 9 -14 11.5t-2 9.5v2q0 11 9 20l16 9h-1l26 14q10 5 20 9l7 3h-1q9 6 16 6q17 0 17 -21q0 -3 -2 -29q-1 -5 -1 -8q0 -13 1 -21q0 -4 0.5 -12t0.5 -9q0 -21 -3 -55q-1 -2 -1 -8
q0 -11 1 -19q2 -14 2 -19v-8q-1 -4 -1 -11q0 -67 11 -95v1q3 -5 7 -13l-1 1q10 -18 10 -24q0 -21 -31 -21q-1 0 -4.5 0.5t-6.5 0.5q-2 0 -8 0.5t-9 0.5h-15q-2 0 -9 -0.5t-11 -0.5q-8 -1 -21 -1q-22 0 -22 21q0 11 17 30q8 10 8 18q0 2 -1 6v8q0 7 1 12v-1q0 2 0.5 5t0.5 4
q0 5 0.5 9.5t1 6.5t0.5 3q1 7 1 22zM66 497q10 0 27 -12q4 -4 9 -21q1 -4 2.5 -9.5t1.5 -6.5l1 -7q0 -20 -14 -34q-9 -10 -20 -10q-42 0 -51 34q-2 8 -3 17q0 24 9 34q15 15 38 15zM153 498q19 0 32 -21q7 -16 7 -31q0 -13 -9 -31q-11 -23 -24 -23q-20 0 -38 20q-8 6 -9 25
l-3 14q0 14 15 36q8 11 29 11z" />
    <glyph glyph-name="eth" unicode="&#xf0;" horiz-adv-x="400" 
d="M224 376q8 0 35 -5q2 -1 7 -1q0 4 -8 33v-2l-10 17q-6 9 -13 26q-4 8 -20 44q-15 38 -25 38l-1 -1q-1 -1 -5 -4l-8 -6q-18 -15 -24 -15q-12 0 -19 12q-26 20 -26 34q0 9 11 21q7 11 17 12l-2 -1q11 5 12 7q-2 -2 -25 20l-23 17h1q-24 15 -24 25v2q0 19 20 19q15 0 38 -14
l-6 2q5 -2 8 -3q2 -1 5.5 -3.5t9.5 -5.5t11 -6q8 -5 21 -12t17 -10q12 0 22 9q9 11 18 15q19 9 28 9q12 0 25 -18q12 -17 12 -27q0 -12 -15 -19h1l-13 -8q-28 -12 -28 -16q9 -8 25 -26q6 -6 29 -42q34 -52 48 -100q20 -66 23 -93l9 -41q0 -1 0.5 -4t0.5 -5q0 -8 1 -14
q2 -18 2 -35q0 -47 -25 -107v1q-12 -30 -31 -49q-58 -53 -109 -53q-54 0 -103 32h1q-48 32 -74 73q-18 27 -18 67q0 18 1 35v35q0 23 38 77q3 4 33 28q29 20 78 31q23 5 47 5zM185 316q-16 0 -25 -6h1q-25 -19 -39 -47v1q-8 -19 -8 -57q0 -34 1 -45q3 -12 11 -37l-1 1
q1 -1 2 -3.5t1 -3.5q5 -15 7 -23v2q9 -14 14 -15l12 -6l13 -7l26 -16q20 0 47 15q23 13 34 51q12 37 12 69q0 14 -2 20l-12 30q-1 1 -1 2l1 -2q-3 9 -17 41q-25 36 -77 36z" />
    <glyph glyph-name="ntilde" unicode="&#xf1;" horiz-adv-x="378" 
d="M136 374q10 0 16 -11l1 -13l17 11q22 14 51 14q12 0 46 -9h-2q38 -4 50 -29q16 -48 16 -60l2 -13v-19l2 -30l-1 -3v-5q0 -13 -1 -21l2 -40q1 -23 7 -48q2 -12 7 -25q0 -4 17 -26q9 -11 17 -22q0 -25 -31 -25h-13l-21 2h-3q-7 0 -15 -1q-2 0 -6 -0.5t-6 -0.5q-5 -1 -11 -1
q-3 0 -9 0.5t-8 0.5q-16 0 -19 1q-18 3 -18 21q0 10 17 28q1 1 7 18l6 17l-2 45l2 9q3 17 3 36q0 88 -7 107q-12 34 -41 34q-20 0 -35 -12q-1 -3 -3 -8.5t-3 -8.5q-7 -14 -9 -19v-28l-2 -10v-9q0 -3 -2 -12v-8q-1 -16 -3 -31q3 -35 3 -38q0 -1 -0.5 -7t-0.5 -9q-1 -3 -1 -6
q1 -2 1 -5q0 -2 1 -8t2 -11l2 -20v2q4 -11 8 -21l-1 3q5 -8 21 -19q6 -6 6 -14q0 -17 -25 -17q-11 0 -44 5l-25 2q-7 0 -31 -6l1 1q-5 -2 -12 -2q-31 0 -31 23q0 13 22 29q6 3 17 29q3 7 5 33q3 39 3 64v29q0 13 1 28q0 20 -8 27h1q-1 1 -15 9q-18 10 -23 16v1q-1 4 -1 10
q0 12 18 23q34 17 47 25q37 28 44 28zM181 496h8q7 -2 16 -6.5t15 -6.5l-1 1l16 -5q35 -19 39 -19q11 0 35 16q2 1 4 4q19 0 19 -15v-2q0 -5 -20 -33q-15 -19 -20 -24q-21 -12 -33 -12t-30 5q-5 1 -27 12q-3 1 -11.5 4t-16.5 6q-21 8 -26 8q-6 0 -10 -6q-11 -17 -20 -17
q-18 0 -18 18q0 12 15 25v-1l13 13q26 35 53 35z" />
    <glyph glyph-name="ograve" unicode="&#xf2;" horiz-adv-x="400" 
d="M267 1l-1 -1q-24 -7 -45 -7q-54 0 -104 32q-37 27 -41 32q-49 50 -49 106v8v43q0 33 7 44v-1q31 66 96 95q29 11 40 14q27 6 47 6q39 0 46 -3h-2q9 -3 37 -15q26 -12 39 -30l13 -18q36 -42 36 -106q0 -55 -31 -118q-15 -34 -53 -58h1q-30 -20 -36 -23zM184 313
q-16 0 -25 -6h1q-22 -16 -38 -46v1q-9 -22 -9 -57q0 -34 1 -44q0 -9 13 -43q0 -2 1 -3t2 -4l-1 1q1 -2 3 -8.5t3 -9.5l-1 3q8 -12 15 -15l22 -12q27 -16 28 -16q19 0 47 14q24 13 35 51q12 38 12 69q0 12 -2 16l-13 33v2v-2q-4 12 -17 40q-24 36 -77 36zM145 519q10 0 23 -8
l-1 1q3 -2 40 -43q4 -4 8 -7q6 -3 14 -11q21 -18 21 -34q0 -19 -19 -19q-5 0 -37 13l1 -1l-39 12l-9 3q-1 1 -4.5 2.5t-4.5 1.5l1 -1q-2 0 -5 1.5t-9 4t-12 4.5q-14 8 -14 29q0 19 14 35.5t32 16.5z" />
    <glyph glyph-name="oacute" unicode="&#xf3;" horiz-adv-x="400" 
d="M267 1l-1 -1q-24 -7 -45 -7q-54 0 -104 32q-37 27 -41 32q-49 49 -49 106v8v43q0 33 7 44v-1q31 67 96 94q26 11 40 15q27 6 47 6q39 0 46 -3h-2q11 -4 37 -16q26 -11 39 -30l13 -17v1q36 -42 36 -107q0 -55 -31 -118q-15 -34 -53 -58h1q-30 -20 -36 -23zM184 313
q-16 0 -25 -6h1q-22 -16 -38 -46v1q-9 -23 -9 -57t1 -44q0 -10 13 -44q0 -1 1 -2t2 -4l-1 1q1 -2 3 -8.5t3 -9.5l-1 3q8 -12 15 -15l22 -12q27 -16 28 -16q19 0 47 14q24 13 35 51q12 36 12 69q0 12 -2 16l-13 33v2v-2q-6 16 -17 40q-25 36 -77 36zM284 510q38 0 38 -37
q0 -24 -22 -40q-15 -11 -30 -12l-16 -2h1q-16 -4 -25 -7h-1q-1 -1 -2 -1l4 1q-6 -3 -12 -5l2 1q-1 0 -10.5 -4.5t-17.5 -7.5q-3 -3 -7 -3q-19 0 -19 18q0 12 26 29l-1 -1q26 17 48 44q18 27 44 27z" />
    <glyph glyph-name="ocircumflex" unicode="&#xf4;" horiz-adv-x="400" 
d="M267 1l-1 -1q-24 -7 -45 -7q-54 0 -104 32q-37 27 -41 32q-49 50 -49 106v9v42q0 34 7 44v-1q31 68 96 95q21 9 40 14q27 6 47 6q39 0 46 -3h-2q9 -3 37 -15q26 -12 39 -30l13 -17v1q36 -42 36 -107q0 -56 -31 -119q-15 -34 -53 -58h1q-30 -20 -36 -23zM184 313
q-15 0 -25 -5h1q-24 -19 -38 -47v1q-9 -22 -9 -57q0 -33 1 -44q0 -9 13 -43q0 -2 1 -3t2 -4l-1 1q1 -2 3 -8.5t3 -9.5l-1 3q8 -12 15 -15l22 -12q27 -16 28 -16q19 0 47 14q23 12 35 52q12 36 12 68q0 12 -2 16l-13 33v2v-2q-3 9 -17 41q-24 35 -77 35zM215 528q7 0 19 -6
l1 -2l3 -3t4 -5l5 -9l16 -22l10 -13q1 -1 5 -7q5 -12 13 -24q2 -5 4 -11l1 -1v-2q6 -7 6 -14q0 -18 -18 -18q-8 0 -53 34q-7 9 -12 16.5l-7 10.5t-1 3q-6 0 -15 -16q-7 -14 -9.5 -16.5t-15.5 -10.5q-7 -5 -17 -14q-10 -10 -19 -10q-17 0 -17 20q5 11 15 25l9 19l14 19l-1 -1
l7 11l15 18q10 21 15.5 25t22.5 4z" />
    <glyph glyph-name="otilde" unicode="&#xf5;" horiz-adv-x="400" 
d="M267 1l-1 -1q-24 -7 -45 -7q-54 0 -104 32q-32 22 -41 32q-49 49 -49 106v8v43q0 33 7 44v-1q31 67 96 94q28 13 40 14q27 6 47 6q39 0 46 -3h-2q18 -6 37 -15q28 -13 39 -30l13 -17q36 -42 36 -106q0 -55 -31 -118q-15 -34 -53 -58h1q-30 -20 -36 -23zM184 313
q-16 0 -25 -6h1q-24 -19 -38 -46v1q-9 -23 -9 -57t1 -44q0 -10 13 -44q1 -2 2 -3t1 -3l-1 1q1 -2 3 -8.5t3 -9.5l-1 3q7 -11 15 -15l22 -12q27 -16 28 -16q19 0 47 14q24 13 35 51q12 36 12 69q0 12 -2 16l-13 33v2v-2q-6 16 -17 40q-25 36 -77 36zM172 496h9q15 -5 30 -13
l-1 1l16 -5q35 -19 39 -19q15 0 35 16q2 1 5 4q19 0 19 -15v-1q0 -5 -21 -34q-10 -14 -20 -24q-19 -12 -33 -12q-12 0 -29 5q-8 2 -28 13l-27 9q-21 8 -27 8q-5 0 -9 -6q-14 -17 -20 -17q-18 0 -18 18q0 11 14 25v-1l13 14q27 34 53 34z" />
    <glyph glyph-name="odieresis" unicode="&#xf6;" horiz-adv-x="400" 
d="M267 1l-1 -1q-24 -7 -45 -7q-54 0 -104 32q-32 22 -41 32q-49 49 -49 106v8v43q0 33 7 44v-1q31 67 96 94q28 13 40 14q27 6 47 6q39 0 46 -3h-2q18 -6 37 -15q28 -13 39 -30l13 -17q36 -42 36 -106q0 -55 -31 -118q-15 -34 -53 -58h1q-30 -20 -36 -23zM184 313
q-16 0 -25 -6h1q-24 -19 -38 -46v1q-9 -23 -9 -57t1 -44q0 -10 13 -44q1 -2 2 -3t1 -3l-1 1q1 -2 3 -8.5t3 -9.5l-1 3q7 -11 15 -15l22 -12q27 -16 28 -16q19 0 47 14q24 13 35 51q12 36 12 69q0 12 -2 16l-13 33v2v-2q-6 16 -17 40q-25 36 -77 36zM255 496q13 0 30 -9
q24 -13 24 -42q0 -19 -24 -40q-13 -13 -25 -13q-21 0 -41 20q-9 9 -10 25l-3 13q0 3 7 18t10 18q10 10 32 10zM149 497q11 0 28 -12q5 -5 10 -20q2 -13 3 -17l1 -7q0 -21 -14 -34q-9 -10 -22 -10q-44 0 -53 34q-3 9 -3 17q0 25 9 34q15 15 41 15z" />
    <glyph glyph-name="divide" unicode="&#xf7;" horiz-adv-x="437" 
d="M354 290l-45 -3q-5 0 -7 1q-22 3 -30 3q-15 0 -45 -3q-3 0 -8 -0.5t-7 -0.5q-13 -1 -32 -1l-34 -2h-8h-10q-15 0 -26 1h-16q-19 0 -31 7q-8 12 -8 32l-1 14q0 23 30 23q15 0 25 -1q1 0 5.5 -0.5t6.5 -0.5q5 -1 12 -1q4 0 24 4l13 1q22 1 61 1q16 0 24 -1q29 4 39 4
q15 0 29 -1q5 -1 8 -1q7 0 14 1q1 0 5.5 0.5t6.5 0.5l40 -2q22 -3 22 -18v-3l-2 -15l3 -18q0 -24 -36 -24q-4 1 -22 3zM233 256q12 0 38 -23q14 -13 14 -37q0 -54 -44 -54q-7 0 -31 12q-23 8 -29 12q-9 10 -9 35q0 27 12 39q4 4 23 10t26 6zM212 508v-19q52 0 49 6
q-1 1 -6 3q2 -1 5 -1q24 -11 24 -49q0 -22 -12 -34q-2 -2 -29 -16q-8 -4 -17 -4q-17 0 -40 22q-16 12 -16 49q0 17 13 30t29 13zM255 498q-5 1 -18 5q5 -1 11 -3t7 -2z" />
    <glyph glyph-name="oslash" unicode="&#xf8;" horiz-adv-x="400" 
d="M226 370q26 0 34 -2q9 -4 11 -4q4 0 8 10l1 2q1 1 2 3l2.5 5t3.5 5l-1 -2q9 19 13 22q9 8 25 8q31 0 31 -21q0 -23 -27 -54v1q-4 -4 -4 -8q0 -1 14 -15l11 -16q36 -41 36 -105q0 -49 -25 -106q-14 -30 -32 -48q-57 -52 -106 -52q-39 0 -78 16q-1 0 -3 1t-3 1
q-4 0 -20 -22q-19 -30 -38 -30q-33 0 -36 24l19 31l13 21l7 11l-2 2q-1 2 -5.5 8t-9.5 12l-22 29q-18 25 -18 65v10v39q0 35 7 46v-1q30 65 96 94q32 13 40 14q27 6 56 6zM185 311q-16 0 -26 -5h1q-23 -17 -38 -46v1q-9 -23 -9 -54q0 -48 6 -70v1q7 -12 9 -23q2 6 5 11l7 11
l-1 -1l8 14l10 16v-1l14 22l13 19l-1 -1l12 25q23 33 29 46q9 15 9 20q0 7 -12 10q-32 5 -36 5zM276 244q-2 0 -4 -2q0 -1 -1.5 -2.5t-1.5 -2.5q-5 -11 -13 -29l-4 -8l-10 -14l-4 -8l-19 -24l1 1q-17 -31 -46 -75h1q-4 -5 -4 -8l12 -9l-1 1l17 -10q62 0 82 65q12 34 12 68
q0 16 -8 32l-7 18z" />
    <glyph glyph-name="ugrave" unicode="&#xf9;" horiz-adv-x="361" 
d="M44 367q5 0 11 -2l-1 1l25 -5q1 0 3 0.5t3 0.5h-2l26 4q45 0 45 -36v-1q0 -1 -0.5 -4t-1 -5.5t-0.5 -6.5q-1 -7 -3 -25l1 -167v-3q-1 -3 -1 -5q0 -1 -0.5 -6t-0.5 -8q-1 -5 -1 -7q0 -19 12 -32q6 -6 11 -6q7 0 23 7t22 12q6 7 13 22.5t7 23.5l-2 42q3 31 3 34v3
q-1 3 -1.5 10t-0.5 14v-1q-1 5 -1 15q0 6 3 52q1 3 1 9q0 7 -2 13l-28 46q18 12 25 12q3 0 6 -1l2 -1h2t3 -0.5t3 -0.5q3 -1 5 -1l43 1q22 0 22 -38v-59l-2 -35l1 -53q0 -13 1 -22q0 -4 1 -6l-3 -52v-1q0 -1 8 -12q20 -26 20 -31q0 -10 -12 -17v1l-23 -18h1q-41 -37 -70 -37
q-16 0 -19 15l-2 14q-9 -5 -22 -15q-9 -6 -28 -6q-54 0 -93 67h1q-11 19 -11 71q0 20 1 35v-1q0 2 0.5 7.5t0.5 8.5t0.5 8.5t0.5 7.5q1 14 1 34q0 5 -3 36q-2 21 -6 28q-4 13 -14 20q-27 21 -27 33q0 19 24 19zM125 520q10 0 22 -8q3 -2 40 -43l8 -6q2 -2 7 -6t7 -6
q21 -16 21 -34q0 -19 -19 -19q-6 0 -37 14l1 -1l-38 11l-10 3l-8 4l1 -1q-3 1 -27 11q-14 8 -14 29q0 19 14.5 35.5t31.5 16.5zM218 22v-3v3z" />
    <glyph glyph-name="uacute" unicode="&#xfa;" horiz-adv-x="361" 
d="M44 367q5 0 11 -2l-1 1l25 -5q1 0 2 0.5t2 0.5l26 4q45 0 45 -37l-2 -16q-2 -12 -3 -25l1 -167q0 -1 -0.5 -3.5t-0.5 -4.5q0 -1 -0.5 -6t-0.5 -8l-1 -7q0 -19 12 -32q6 -6 11 -6q7 0 23 7t22 12q6 7 13 22t7 23l-2 43q3 31 3 34v3q-1 3 -1.5 10t-0.5 14v-1q-1 4 -1 15
q0 6 3 52q1 3 1 9q0 5 -2 13l-28 45q17 13 25 13q3 0 7 -2h3q1 0 3 -0.5t3 -0.5q3 -1 5 -1l43 1q22 0 22 -38v-59l-2 -35l1 -53q0 -13 1 -22q0 -4 1 -6l-3 -52v-1q0 -2 8 -12q20 -26 20 -31q0 -10 -12 -17l-23 -17h1q-41 -37 -70 -37q-16 0 -19 15l-2 14q-9 -5 -22 -15
q-9 -6 -28 -6q-54 0 -93 67h1q-11 19 -11 71q0 20 1 35q0 2 0.5 7t0.5 8t0.5 8.5t0.5 7.5q1 14 1 34q0 5 -3 36q-2 22 -6 28q-5 14 -14 20q-27 20 -27 33q0 19 24 19zM264 511q37 0 37 -38q0 -25 -21 -39q-16 -12 -30 -13l-16 -2h1q-18 -5 -25 -7h-1q-1 -1 -2 -1l4 1
q-7 -4 -12 -4h2q-4 -1 -28 -12q-3 -3 -7 -3q-19 0 -19 18q0 14 26 29l-1 -1q30 21 47 45q21 27 45 27zM218 22v-3v3zM238 367l1 -1z" />
    <glyph glyph-name="ucircumflex" unicode="&#xfb;" horiz-adv-x="361" 
d="M44 367q5 0 11 -1l-1 1l25 -5q1 0 2 0.5t2 0.5l26 4q45 0 45 -37v-1q0 -1 -0.5 -4t-1 -5.5t-0.5 -6.5q-1 -7 -3 -25l1 -166q0 -1 -0.5 -4t-0.5 -5q0 -1 -0.5 -6t-0.5 -8q-1 -4 -1 -7q0 -19 12 -32q6 -6 11 -6q7 0 23 7t22 12q6 7 13 22.5t7 23.5l-2 42q3 31 3 34v3
q-1 3 -1.5 10t-0.5 14v-1q-1 5 -1 15q0 7 3 52q1 3 1 9t-2 14l-28 45q16 12 25 12q3 0 6 -1h1h2h-2h3q1 0 3 -0.5t3 -0.5q3 -1 5 -1l43 1q22 0 22 -39v-59l-2 -35l1 -53q0 -13 1 -22q0 -4 1 -6l-3 -52v-1q0 -1 8 -12q20 -26 20 -31q0 -10 -12 -17v1l-23 -18h1
q-41 -37 -70 -37q-16 0 -19 15l-2 14q-9 -5 -22 -15q-9 -6 -28 -6q-54 0 -93 67h1q-11 19 -11 71q0 20 1 35q0 2 0.5 7t0.5 8t0.5 8.5t0.5 7.5q1 14 1 34q0 5 -3 36q-2 21 -6 28q-5 15 -14 20q-27 21 -27 33q0 19 24 19zM195 529q7 0 19 -6q1 -2 7 -11l6 -9l16 -22l9 -12
q1 -2 5 -8q2 -4 6.5 -12t6.5 -12q2 -5 4 -11q0 -1 2 -3q6 -6 6 -14q0 -17 -18 -17q-9 0 -53 33q-21 30 -20 30q-6 0 -15 -16q-7 -14 -9.5 -17t-15.5 -10q-9 -5 -16 -14q-13 -9 -20 -9q-16 0 -16 19q3 10 15 26l-1 -1l9 19l15 20l-1 -1l6 10l15 19q10 21 15.5 25t22.5 4z
M218 22v-3v3z" />
    <glyph glyph-name="udieresis" unicode="&#xfc;" horiz-adv-x="361" 
d="M44 367q5 0 11 -2l-1 1l25 -5q1 0 2 0.5t2 0.5l26 4q45 0 45 -37v-2q-1 -2 -1.5 -6.5t-0.5 -7.5q-1 -7 -3 -25l1 -167q0 -1 -0.5 -3.5t-0.5 -4.5q0 -1 -0.5 -6t-0.5 -8q-1 -5 -1 -8q0 -18 12 -31q6 -6 11 -6q8 0 23.5 6.5t21.5 12.5q6 7 13 22t7 23l-2 43q3 31 3 33v4
q-1 3 -1.5 9.5t-0.5 13.5v-1q-1 5 -1 16q0 6 3 52q1 3 1 8q0 6 -2 14l-28 45q17 13 25 13q3 0 7 -2h3q1 0 3 -0.5t3 -0.5q3 -1 5 -1l43 1q22 0 22 -39v-58l-2 -35l1 -53q0 -13 1 -22q0 -4 1 -6l-3 -52v-1q0 -2 8 -12q20 -26 20 -31q0 -9 -12 -18v1l-23 -17h1
q-41 -37 -70 -37q-16 0 -19 15l-2 14q-9 -5 -22 -15q-9 -6 -28 -6q-54 0 -93 67h1q-11 19 -11 71q0 20 1 35q0 2 0.5 7t0.5 8t0.5 8t0.5 7q1 15 1 35q0 3 -3 36q-2 22 -6 28q-5 14 -14 20q-27 20 -27 32q0 20 24 20zM235 497q13 0 30 -10q23 -12 23 -41q0 -19 -23 -41
q-15 -12 -25 -12q-22 0 -41 19q-9 9 -10 25l-3 13q0 3 7 18t9 18q11 11 33 11zM129 498q12 0 28 -13q6 -6 10 -20q3 -12 3 -16l1 -7q0 -21 -14 -35q-8 -9 -21 -9q-44 0 -53 33q-3 9 -4 18q0 23 10 33q15 16 40 16zM218 22v-3v3zM238 367l1 -1z" />
    <glyph glyph-name="yacute" unicode="&#xfd;" horiz-adv-x="324" 
d="M60 370l16 -2q8 0 40 -4q6 -1 18 -2t16 -1q12 -8 12 -22q0 -10 -16 -33v-2q0 -2 6 -28q0 -3 1 -6.5t2 -8t2 -7.5q0 -8 4 -33q2 -12 9 -24q8 -22 14 -35l8 -18q3 0 8 17v-1q2 7 10 25v-1l13 39q4 6 11 30q3 6 6 15h-1q6 21 6 29q0 5 -18 41v1q-2 4 -2 10q0 21 25 21h15h-1
q10 -1 17 -1l26 1h4q31 0 31 -26q0 -8 -22 -35l-4 -14q-15 -26 -20 -55q-6 -19 -24 -61q-5 -9 -11 -31l-11 -26v1l-8 -26h1l-6 -25l-12 -25q-1 -4 -2.5 -10.5t-2.5 -10.5t-2 -7l1 1q0 -4 -4 -11q-1 -6 -6 -15q-18 -39 -25 -51l-15 -29q-10 -20 -18 -44q-22 -51 -27 -58h1
q-41 -70 -72 -74q-4 -1 -20 -1q-33 0 -33 31q0 13 11 26q11 11 38 18q18 5 46 83l21 52l-1 -1l7 22q8 20 8 58q0 5 -3 23l-4 18v-1l-6 20h1q0 2 -1 6t-2 5q-4 22 -6 30q-4 4 -25 57v1q-1 4 -4 11.5t-8 24t-10 30.5q-14 45 -34 60q-25 19 -25 32q0 23 24 24q21 3 33 3z
M265 517q37 0 37 -38q0 -26 -21 -40q-16 -12 -31 -13l-16 -2h1q-15 -4 -24 -7q-1 0 -3 -1l4 1q-5 -3 -13 -5l2 1q-2 -1 -11 -5t-16 -7q-3 -3 -8 -3q-19 0 -19 18q0 13 27 30l-1 -1q27 18 47 44q19 28 45 28z" />
    <glyph glyph-name="thorn" unicode="&#xfe;" horiz-adv-x="379" 
d="M142 633v20q19 0 19 -23q0 -8 -4 -22l2 -28v-3q0 -3 -2 -11q0 -22 -3 -57v-6l2 -51q-4 -23 -4 -32q0 -13 1 -20q3 -24 3 -33q0 -1 -0.5 -6t-0.5 -7q-1 -2 -1 -6q12 12 32 21.5t32 9.5q43 0 79 -18q33 -16 44 -36h-1l1 -3q1 -4 3 -6q2 -6 8 -15q2 -3 15 -48l1 -3v-4v2
q2 -6 3 -15q0 -31 1 -66l1 -25v-3q0 -27 -32 -77q-20 -30 -52 -50q-24 -17 -35 -18l-42 -5l-49 11l-6 -18l-1 -25l2 -35v-62l-1 -32q0 -28 21 -40h-2q7 -2 15 -6q1 -1 4 -2t5.5 -2.5t4.5 -2.5h-1q12 -3 12 -19q0 -21 -24 -21q-2 0 -7 0.5t-8 0.5h-11q-10 0 -39 -4h-6
q-13 0 -21 1q-14 2 -19 2q-1 0 -5 -0.5t-6 -0.5h-10q-32 0 -32 23q0 11 13 19l-1 -1q5 4 9 8l7 7l2 3h-1q3 7 5 16v-1q2 6 3 8q0 22 1 37v-1q0 4 0.5 13t0.5 14l3 41v1v3t-0.5 4.5t-0.5 8v11.5q0 27 -1 38l-1 11l1 39l-1 17q0 1 0.5 4.5t0.5 4.5q2 8 3 19l-2 26l-1 25v-2
q-1 5 -1 21q-1 7 -1 14q0 41 3 95q0 1 0.5 3.5t0.5 4.5q4 40 4 43v5q-3 18 -3 22v38l2 22v61q-4 7 -5 18l-4 14q-1 10 -4 26v-1q-4 7 -7 10l-21 11h2q-10 4 -10 23t38 39q9 4 21 18l22 13v-1q13 9 21 15q-6 -5 9 -9zM199 297q-25 0 -35 -13q-5 -7 -5 -10v1l-2 -23l-3 -30
l1 -23l-1 -71l2 -19v-21q4 -11 9 -22l1 -3q7 -12 41 -13q11 0 18 -1l2 -1h4h2q16 0 28 18q29 36 29 83q0 148 -91 148zM128 645q-1 -1 -2 -1q1 0 2 1z" />
    <glyph glyph-name="ydieresis" unicode="&#xff;" horiz-adv-x="324" 
d="M60 369l16 -2h-1q3 0 41 -3q6 -1 18 -2t16 -1q12 -8 12 -22q0 -10 -16 -33v-2q0 -2 6 -28q0 -3 1 -6.5t2 -8t2 -7.5q0 -8 4 -33q1 -11 9 -24q8 -22 14 -35l8 -18q3 0 8 17v-1q2 7 10 25v-1l13 39q3 5 11 29q4 10 6 16h-1q6 21 6 29q0 5 -18 41v1q-2 4 -2 10q0 21 25 21
q11 0 15 -1h-1q10 -1 17 -1l26 1h4q31 0 31 -25q0 -8 -22 -35l-4 -14q-15 -26 -20 -55q-6 -19 -24 -61q-5 -9 -11 -31l-11 -26v1l-8 -27h1l-6 -24l-12 -25q-1 -4 -2.5 -10.5t-2.5 -10.5t-2 -7l1 1q0 -4 -4 -11q-1 -6 -6 -15q-18 -39 -25 -51l-15 -29q-10 -20 -18 -44
q-22 -51 -27 -58h1q-41 -70 -72 -74q-4 -1 -20 -1q-33 0 -33 31q0 15 11 26t38 18q18 5 46 83l21 52l-1 -1l7 22q8 20 8 58q0 5 -3 23l-4 18v-1l-6 20h1q0 2 -1 6t-2 5q-4 22 -6 30q-4 4 -25 57v1q-1 3 -4 11.5t-8 24t-10 29.5q-13 46 -34 61q-25 19 -25 32q0 21 24 23
q21 3 33 3zM235 503q14 0 30 -10q24 -12 24 -42q0 -20 -24 -41q-14 -12 -24 -12q-22 0 -42 19q-8 11 -9 25l-3 14q0 3 6.5 18t9.5 18q11 11 32 11zM129 504q11 0 29 -13q4 -3 9 -20q1 -3 1.5 -7t1.5 -6.5t1 -3.5l1 -7q0 -19 -14 -35q-9 -9 -22 -9q-44 0 -53 34q-3 8 -4 17
q0 24 10 34q15 16 40 16z" />
    <glyph glyph-name="Cacute" unicode="&#x106;" horiz-adv-x="613" 
d="M368 691q93 0 179 -52q9 -6 35 -16q18 -7 19 -25q3 -24 3 -64q0 -1 -0.5 -7t-0.5 -9q-1 -6 -1 -13v-27q0 -21 -20 -21q-13 0 -22 18v1q-1 2 -2 4.5t-2 4.5q-4 4 -7 13q-2 6 -8 16q-2 4 -4 7.5t-3 5.5t-2 3.5t-2 2.5v1q-8 12 -14 16l-32 23q-4 3 -21 15t-30 21l1 -1
q-9 4 -45 8q-27 5 -34 5q-10 0 -26 -7q-27 -8 -61 -37q-24 -13 -29 -18l1 1q-32 -38 -44 -62q-21 -48 -21 -58v-43q0 -3 -1 -6q0 -1 -0.5 -4.5t-0.5 -4.5q-10 -31 -10 -37q0 -4 1 -7q3 -23 3 -37v-6q0 -3 -0.5 -8t-0.5 -7q-1 -5 -1 -10v-4l2 -15v-34q0 -11 20 -53
q16 -30 29 -44q40 -43 77 -55v1q26 -7 49 -7l48 1q8 0 38 2h7q4 0 9 1q23 2 28 5q16 9 40 38l-1 -1q1 2 6 10t11 18t13 20q6 8 7 15v-2v2q1 2 1 3q5 31 27 31q24 0 24 -32q0 -20 -1 -33q0 -3 -0.5 -9.5t-0.5 -10.5v-28q-2 -30 -4 -38v1q-3 -9 -15 -17l-15 -8l2 1h-2
q-32 -21 -43 -24l-28 -9v1q-39 -15 -57 -15q-45 0 -63 1q-3 0 -8.5 0.5t-6.5 0.5h-3q-10 0 -25 -1q-31 4 -35 5q-13 4 -39 18q-33 19 -34 20l-23 18q-45 34 -66 56q-20 21 -61 92q-14 25 -26 65q-4 15 -4 89q0 59 6 89q10 51 41 89l-1 -2q5 6 6 7q18 19 19 25l24 40
q14 23 89 58q65 28 69 29q38 11 73 11zM444 830q39 0 39 -39q0 -26 -22 -42q-17 -12 -31 -13l-17 -2h-1l-2 -1h1q-3 -1 -19 -6q-6 -2 -14 -6l-6 -2q-28 -13 -30 -13q-17 0 -17 18q0 14 26 30q21 16 48 48q18 28 45 28z" />
    <glyph glyph-name="cacute" unicode="&#x107;" horiz-adv-x="317" 
d="M181 372h20q30 0 41 -1q36 -3 61 -37q12 -18 12 -37q0 -14 -11 -26.5t-24 -12.5q-32 0 -63 41q-11 14 -19 15q-7 1 -34 3q-14 -1 -33 -28q-13 -19 -13 -73v-9q0 -2 0.5 -4.5t0.5 -3.5v-25q4 -6 10 -21q1 -3 3.5 -7.5t4 -7.5t1.5 -5l3 -7q12 -28 25 -46q6 -9 21 -18
q12 -9 21 -9h14q28 1 52 12h-1q16 9 21 9q14 0 14 -14q0 -10 -15 -21q-2 -1 -13.5 -10t-20.5 -16t-20.5 -13.5t-17.5 -6.5q-60 0 -89 14q-17 8 -38 24q-15 15 -29 34q-12 16 -24 41q-3 6 -6 36q-9 39 -9 53q0 66 41 115v-1q24 28 41 39q35 23 73 24zM273 510q38 0 38 -37
q0 -24 -22 -40q-15 -11 -30 -12l-16 -2h1q-15 -4 -24 -7h-1q-1 -1 -2 -1l4 1q-4 -2 -12 -5l1 1q-14 -7 -27 -12q-2 -3 -7 -3q-19 0 -19 18q0 12 26 29l-1 -1q27 18 47 44q18 27 44 27z" />
    <glyph glyph-name="Ccaron" unicode="&#x10c;" horiz-adv-x="613" 
d="M368 691q93 0 179 -52q11 -7 35 -15q18 -7 19 -26q3 -24 3 -63q0 -2 -0.5 -8t-0.5 -9q-1 -6 -1 -13v-27q0 -21 -20 -21q-13 0 -22 18v1q-1 2 -2 4.5t-2 4.5q-4 5 -7 13q-2 6 -8 16q-3 6 -6 11t-4 7l-1 3q-8 12 -14 15l-32 23q-4 3 -21 15t-30 21l1 -1q-8 3 -45 9
q-27 5 -34 5q-12 0 -26 -8q-26 -7 -61 -36q-25 -15 -29 -19l1 1q-30 -34 -44 -62q-21 -48 -21 -58v-43q0 -3 -1 -6q0 -1 -0.5 -4.5t-0.5 -4.5q-10 -31 -10 -37q0 -4 1 -7q3 -23 3 -37v-6q0 -3 -0.5 -8t-0.5 -7q-1 -5 -1 -10v-4l2 -15v-34q0 -10 20 -53q16 -30 29 -44
q40 -43 77 -55v1q26 -7 49 -7l48 1q8 0 38 2h7q4 0 9 1q23 2 28 5q16 9 40 38l-1 -1q1 2 6 10t11 18t13 20q6 8 7 15v-2v2q1 2 1 3q4 31 27 31q24 0 24 -32q0 -19 -1 -33q0 -3 -0.5 -9.5t-0.5 -10.5v-28q-2 -30 -4 -38v1q-3 -9 -15 -17l-15 -8l2 1h-2q-32 -21 -43 -24
l-28 -9v1q-39 -15 -57 -15q-45 0 -63 1q-3 0 -8.5 0.5t-6.5 0.5h-3q-10 0 -25 -1q-31 4 -35 5q-13 4 -39 18q-32 19 -34 20l-23 18q-45 34 -66 56t-61 93q-14 24 -26 64q-4 15 -4 89q0 59 6 89q10 51 41 89l-1 -2q5 6 6 7q18 19 19 25l24 40q14 23 89 58q53 24 69 29
q38 11 73 11zM293 839q10 0 54 -35q11 -16 16 -24t4 -8q5 0 14 18l-1 -3v1l1 2q7 11 14 18q3 3 23 19q4 4 7 6q11 9 20 9q17 0 17 -18q0 -6 -16 -28h1l-12 -21l-12 -19h1l-8 -11l-16 -21q-7 -17 -11 -21q-8 -8 -26 -8q-7 0 -19 5q-6 9 -8 11l-6 9l-17 25l-11 18l-2 3l1 -2
q-4 6 -14 26q-1 3 -4 9t-4 9v-1q-5 7 -5 16q0 16 19 16z" />
    <glyph glyph-name="ccaron" unicode="&#x10d;" horiz-adv-x="317" 
d="M181 372h20q30 0 41 -1q37 -3 61 -37q12 -18 12 -36q0 -15 -11 -27.5t-24 -12.5q-32 0 -63 42q-11 13 -19 14q-7 1 -34 3q-15 -1 -33 -28q-13 -17 -13 -73v-9v-5l1 -2v-26q4 -6 10 -21q8 -17 9 -20l3 -7q12 -28 25 -46q6 -9 21 -18q12 -9 21 -9h14q29 2 52 13l-1 -1
q16 9 21 9q14 0 14 -14q0 -10 -15 -21q-2 -1 -13.5 -10t-20.5 -16t-20.5 -13.5t-17.5 -6.5q-60 0 -89 14q-17 8 -38 24q-15 15 -29 35q-8 11 -24 40q-3 6 -6 36q-9 40 -9 54q0 67 41 114v-1q21 27 41 39q35 23 73 24zM125 525q9 0 53 -33q21 -31 19 -31q7 0 14 16l-1 -3v1
q1 1 1 2q6 11 13 18q13 9 29 24q13 9 20 9q16 0 16 -17q0 -8 -13 -25q-2 -2 -2 -3l1 1l-12 -19l-22 -34l-12 -16q-6 -15 -11 -20q-9 -7 -25 -7q-6 0 -18 5l-9 15l-5 5l-12 17l-12 19v-1q-13 18 -17 30q-4 9 -8 17v-1q-4 5 -4 14q0 17 17 17z" />
    <glyph glyph-name="dslash" unicode="&#x111;" horiz-adv-x="383" 
d="M234 431l-15 -2h1q-15 -3 -20 -3q-20 0 -20 22q0 1 0.5 4t1 8.5t0.5 10.5q1 2 1 4v3q-1 2 -1 5q0 24 23 24l3 -1h4q3 -1 8 -1h2q5 1 12 1q5 0 8 -1q2 0 3 -1q2 4 2 13q0 21 -9 34q0 1 -21 14q-9 6 -9 21q0 14 14 26q5 0 19 11q15 5 42 21q19 14 36 14q28 0 28 -27
q0 -7 -2 -17q-5 -20 -7 -47q0 -6 -5 -43v-8q-1 -2 -1 -5q2 1 6 1q10 0 22.5 -9.5t12.5 -20.5q0 -6 -3 -14q-1 -17 -5 -28q-9 -12 -15 -12l-16 3v-6l-1 -14v1l-1 -40l-1 -279q0 -8 2 -14l-1 1l10 -17l7 -15l-1 1q11 -18 11 -28q0 -24 -31 -24q-11 0 -18 1l-6 1q-2 1 -5 1
q-1 0 -4.5 -0.5t-5.5 -0.5h-8q-24 0 -32 10l-7 11q-1 0 -3.5 -1.5t-6.5 -3.5t-9 -4q-11 -6 -23 -10l-18 -1h1l-21 -4q-13 0 -34 7q-21 6 -34 16q-16 14 -30 34l1 -1q-22 36 -25 46v-1q-14 25 -14 60q0 112 49 166q25 28 81 41q-26 -6 3 -10q13 -2 28 -2v20q35 0 54 -24h1
q-1 2 -1 5l-1 14l3 29v-1l1 21q1 8 1 16q-1 -1 -11 -1zM203 280q-24 0 -48 -8q-23 -9 -38 -39q-9 -23 -9 -87q0 -29 22 -61q13 -22 46 -22q36 0 52 30q15 32 15 49l-1 45q0 5 1 8l2 17l-4 27q-2 26 -3 28q-13 13 -35 13z" />
    <glyph glyph-name="Gbreve" unicode="&#x11e;" horiz-adv-x="650" 
d="M360 689q46 0 106 -5q17 -1 34 -8l37 -17l-1 1q11 -3 45 -19q28 -21 28 -54q0 -40 -3 -91q-2 -22 -4.5 -33.5t-5 -13.5t-7.5 -2h-1q-20 0 -46 69v-1q-6 20 -12 26q-8 5 -21 16q-3 5 -26 30q-1 0 -4 3q-5 4 -8 6q-19 13 -49 21q-42 8 -47 8q-50 0 -101 -30
q-26 -15 -41 -30q-24 -27 -37 -67q-6 -21 -14 -57q-12 -48 -12 -51q1 -4 3 -31v-17q0 -2 -0.5 -11t-0.5 -13l-1 -45l-3 -29q0 -4 11 -46l2 -5q2 -5 7.5 -17t10.5 -26q25 -61 94 -89q38 -16 66 -16q12 0 51 10q9 1 28 3q50 3 50 78q0 15 -8.5 27.5t-21.5 13.5
q-27 1 -33.5 4.5t-6.5 19.5q0 11 14 22q11 0 32 4q34 5 44 5q16 0 61 -5h9q5 0 10 1q10 2 13 2q22 0 27 -25v-5q0 -12 -6 -18l-17 -19q0 -1 -2 -35v-23l-1 -39q0 -18 -3 -40t-30 -22q-8 0 -26 2q-7 1 -18 1q-2 0 -35 -10l-36 -3l-25 -3l-15 -2q-22 -2 -37 -4q-14 -2 -15 -2
h-2q-62 0 -79 6q-71 27 -116 69q-26 23 -40 46q-39 56 -55 109l1 -1q-1 3 -3 10t-3 9q0 1 -3.5 8t-4.5 11l1 -1q-16 37 -16 75q0 18 1 31v-1q0 3 0.5 8.5t0.5 7.5v14q2 45 24 98q24 58 66 111q25 28 52 43l-1 -1q4 3 10 8q32 22 68 34q7 2 15 4.5t11.5 4t4.5 1.5q34 2 66 2z
M448 822l5 1q16 0 16 -23q-1 -22 -18 -46l-31 -31q-36 -17 -42 -15l2 -1l-9 1l-5 1q-2 0 -11 1t-14 2q-29 15 -42 35q-5 5 -6 7q-3 3 -5 10l-13 56l27 -1q12 -8 20 -27q7 -14 11 -15v1q18 -6 30 -6z" />
    <glyph glyph-name="gbreve" unicode="&#x11f;" horiz-adv-x="365" 
d="M214 377q11 0 23 -2q14 -7 38 -20h5q-1 0 0 1l3 3q17 17 28 17q17 0 29.5 -13.5t12.5 -29.5q0 -13 -7 -25q-2 -2 -6 -8q-1 -1 -5 -5.5t-7 -7.5v-8q0 -6 2 -20l3 -27v-30q0 -28 -3 -41q-4 -20 -23 -45q-4 -7 -27 -22h1q-17 -14 -36 -24q-4 0 -24 -4q-6 -1 -16 -2t-13 -2
h-8h-10q-12 0 -23 0.5t-17 1t-8 0.5q-9 0 -9 -4q0 -12 28 -16l51 -7l48 1q7 0 28 -14h-2q28 -9 42 -21h-1q25 -18 42 -53q4 -13 4 -39v-18v-16v-12l-1 -16q-1 -32 -11 -56q-16 -35 -52 -56l-2 -1l-4 -4v1q-2 -2 -4 -2q-51 -36 -96 -36q-57 0 -87 20q-32 21 -44 37
q-30 38 -30 75q0 29 4 62q5 38 35 59q3 3 6.5 6t5.5 4.5t3 2.5v2l1 -1q-23 39 -23 95q0 14 2 19l15 22q-15 15 -18 30v-1q-16 28 -16 94q0 55 26 92q20 30 41 40q12 7 35 12q4 1 18 8q7 4 53 4zM218 -73q-5 0 -9 -1q-8 -2 -15 -2q-3 0 -7 1q-2 0 -10 1.5t-14 2.5
q-1 -1 -3 -1q-4 -2 -20 -19q-6 -6 -10 -9q-24 -21 -24 -60q0 -33 13 -51q16 -28 69 -28q70 0 107 46q10 10 10 35q0 20 -14 38q-12 16 -43 34l-9 6h1q-16 7 -22 7zM179 304q-19 0 -37 -15l-1 -1l-2.5 -5t-3.5 -5l1 2q-1 -1 -2.5 -4t-2.5 -4q-19 -26 -19 -40q0 -34 6 -46
q4 -7 9 -19q25 -46 42 -46q53 0 69 24l-1 -2q4 11 10 20v-1q10 21 10 32q0 40 -12 74q-5 11 -15 19q-1 0 -2 0.5t-3.5 1.5t-6.5 2q-35 13 -39 13zM264 522l5 1q16 0 16 -22q0 -21 -17 -47l-3 -3l-30 -30l-3 -1h-3q-28 -13 -30 -13l-8 1h-3l-3 1q-1 0 -10 1t-14 2
q-28 15 -41 37l1 -1l-11 15l-14 60l26 -5q12 -2 20 -25q7 -14 11 -15v1q27 -7 29 -7z" />
    <glyph glyph-name="Idot" unicode="&#x130;" horiz-adv-x="250" 
d="M75 675l54 -3q31 4 44 4q48 0 48 -35q0 -11 -13 -22q-14 -13 -17 -21q-8 -24 -8 -134v-1q0 -9 1 -21q0 -8 0.5 -28t0.5 -32v-27q0 -39 -2 -83q-1 -3 -1 -12q0 -8 1 -15q1 -15 1 -30q0 -7 -1 -14v-9q0 -2 3 -28l1 -53v1l1 -14q5 -10 8 -17q1 -4 4 -10q0 -1 0.5 -2.5
t1.5 -3.5t1 -3l14 -14q9 -16 9 -23q0 -25 -18 -25h-28q-3 0 -4 -1q-7 -1 -19 -1h-3q-2 1 -4 1q-1 0 -5 0.5t-7 0.5l-40 -1h-4q-11 0 -33 8q-11 6 -11 22q0 10 7 17l22 20q6 10 6 25q0 5 2 13q0 3 0.5 11.5t1.5 15.5q2 6 2 10q0 2 -2 16q-1 7 -1 19q0 18 1 31q0 2 0.5 6.5
t0.5 6.5q3 29 3 43q0 4 -3 37v-1q-1 3 -1.5 10.5t-0.5 10.5l3 32v-1l-1 3v4q0 1 -0.5 5.5t-0.5 7.5v100q0 3 -1 8q-1 7 -2 21.5t-1 18.5q0 2 -0.5 6.5t-0.5 6.5l-1 53q-1 15 -19 33h1q-19 16 -19 29q0 26 29 28zM134 821q11 0 27 -10q24 -15 24 -45q0 -18 -15 -36
q-23 -26 -36 -26q-12 0 -34 16q-13 10 -14 20q0 7 -1 15v-1q-2 16 -2 17q0 8 6 20v-1q6 17 17 26q8 5 28 5z" />
    <glyph glyph-name="dotlessi" unicode="&#x131;" horiz-adv-x="189" 
d="M66 140v20q0 24 -2 50l1 -1q-2 5 -2 8v3q0 5 2 13l1 10l3 22l-3 6q-3 3 -4 5l-5 5q-11 9 -13 11.5t-2 9.5v1q0 14 8 20l16 9h-1l25 14q10 5 20 9l6 3q7 6 15 6q17 0 17 -21q0 -10 -3 -28q-1 -5 -1 -9q0 -12 1 -20q0 -4 0.5 -12t0.5 -9q0 -19 -3 -54v-8v-18q2 -16 2 -19
v-9q-1 -3 -1 -10q0 -63 12 -94v1l6 -12l-1 1q9 -18 9 -24q0 -21 -29 -21q-1 0 -4.5 0.5t-6.5 0.5q-2 0 -8 0.5t-9 0.5h-14q-2 0 -8.5 -0.5t-10.5 -0.5q-8 -1 -21 -1q-22 0 -22 21q0 11 18 29h-1q8 10 8 18q0 2 -1 6v8q0 7 1 12v-1q0 1 0.5 4.5t0.5 4.5q0 4 0.5 8.5t1 7
t0.5 3.5q1 6 1 21z" />
    <glyph glyph-name="Lslash" unicode="&#x141;" horiz-adv-x="434" 
d="M315 68h26q5 0 21 19q29 36 30 39v-1q21 45 35 45q18 0 18 -20v-4l-3 -41l3 -33v-3q1 -7 1 -19v-7q0 -30 -19 -41q-12 -2 -40 -2h-25l-64 2h-2q-3 -1 -5 -1q-7 0 -14 -1h-9q-12 -2 -23 -2q-23 0 -55 4q-12 2 -21 2q-11 0 -49 -2h-5l-10 -2q-2 0 -5.5 -1t-10.5 -2.5
t-12 -2.5l1 1q-5 -2 -10 -2q-35 0 -35 23q0 14 14 28q1 1 6.5 5.5t10.5 8.5q23 21 24 59q6 31 6 62v17q-1 8 -1 17q0 13 1 28v6q0 6 -1 6q-4 0 -7 -3q-19 -18 -31 -18q-11 0 -15 7l-8 10q-12 19 -12 29q0 17 12 20l10 4q2 3 8 3l4 2l35 23q8 7 8 33h19q-1 0 -6 7.5t-10 20
t-5 24.5l1 102l-3 24q0 22 -2 34q0 1 -2 3.5t-3 4.5l-3 6t-4 7v-1l-9 16q-4 0 -16 7h1q-4 2 -10 4q-10 6 -10 20q0 21 22 22q4 1 13 1q2 0 5 0.5t5 0.5l65 -2h5q5 1 19 1.5t28 1.5l27 1h4q28 0 28 -24q0 -13 -11 -19h1l-11 -6l-11 -14q-6 -7 -7 -6q-19 -49 -19 -121
q0 -29 1 -40v-48q6 7 32 20l1 1q2 1 4 3t5 4q1 1 2.5 2l3 2t3.5 2q15 10 21 10q16 0 22 -16l3 -9q10 -17 10 -23q0 -18 -21 -24q-10 -5 -20 -11q-10 -3 -31 -19q-4 -6 -22 -13l-9 -4q-4 -14 -4 -28l1 -34q-4 -31 -4 -41q0 -6 2 -20q2 -13 3 -34l2 -26q0 -14 -3 -29
q-1 -2 -1 -5q0 -36 36 -36q6 0 31 4q20 0 41 1h-1z" />
    </font>
</defs>
</svg>
